Welcome to our Community
Wanting to join the rest of our members? Feel free to sign up today.
Sign up

Meitantei Conan: Kara Kurenai no Love Letter | Detektiv Conan Film 21: Der purpurrote Liebesbrief [Ger-Jap-Dub][Ger-Sub][MP3|AC-3|DTS-HD][408p|720p|1080p][BluRay] - AST4u

Azugo

H͓̽u͓̽g͓̽o͓̽ ͓̽&͓̽ ͓̽A͓̽z͓̽u͓̽r͓̽a͓̽
Otaku Gott
Uploader
25 März 2020
3.588
36.001
118
Meitantei Conan: Kara Kurenai no Love Letter
Detektiv Conan: Der purpurrote Liebesbrief

obs6pwqm.jpg

Meitantei Conan: Kara Kurenai no Love Letter | Detektiv Conan: Der purpurrote Liebesbrief [Ger-Jap-Dub][Ger-Sub][MP3|AC-3|DTS-HD][408p|720p|1080p][BluRay] - AST4u

Animeinformationen
Kurzbeschreibung by AniSearch.de
Bei einem Anschlag kommen beinahe Conans Kollege Heiji Hattori und dessen Freundin Kazuha Toyama zu Tode. Scheinbar handelt es sich bei den Tätern um Terroristen, deren Beweggründe jedoch noch nicht klar sind. Da taucht auf einmal eine Frau namens Momiji Ooka mit der Behauptung auf, schon lange mit Heiji verlobt zu sein. Bald kommt der Verdacht auf, dass sie etwas mit dem Fall zu tun haben könnte – doch gelingt es Conan und Heiji, die Wahrheit noch rechtzeitig ans Licht bringen?


Studio: TMS Entertainment Co., Ltd.
Genre: Krimi
Nebengenre: Action, Krimi, Romanze
Spieldauer: 112 Min.
Jahr: 2017

Releaseinformationen
Episoden: 1 / 1
Sprache:
Deutsch, Japanisch
Untertitel: Deutsch
Publisher: Kazé Deutschland
Release-Gruppe: AST4u
Quelle: BluRay
Format: AVI | MKV
Video-Codec: XviD | x264
Farbtiefe: 8bit
Audio-Codec: MP3 | AC3 | DTS-HD
Audio-Kanäle: GER MP3 2.0 | JAP MP3 2.0 || GER AC3 5.1 | JAP AC3 5.1 || GER AC3 5.1 | JAP AC3 5.1 || GER DTS-HD 5.1 | JAP DTS-HD 5.1
Auflösung: 408p | 720p | 1080p
Größe: 1.49 GB | 3.09 GB | 6.59 GB | 11.5 GB
Hoster: Share-Online.biz

Mediainfo
Code:
General
Complete name                            : Detektv.Conan.Move.21-Der.purpurrote.Lebesbref.German.DL.MP3.BluRay.Xvd.AST4u
Format                                   : Matroska
Format version                           : Version 4 / Version 2
File size                                : 1.49 GiB
Duration                                 : 1 h 51 min
Overall bit rate                         : 1 905 kb/s
Encoded date                             : UTC 2018-09-26 18:38:40
Writing application                      : mkvmerge v8.1.0 ('Psychedelic Postcard') 32bit
Writing library                          : libebml v1.3.1 + libmatroska v1.4.2
FileExtension_Invalid                    : mkv mk3d mka mks

Video
ID                                       : 3
Format                                   : MPEG-4 Visual
Format profile                           : Advanced Simple@L5
Format settings                          : BVOP2
Format settings, BVOP                    : 2
Format settings, QPel                    : No
Format settings, GMC                     : No warppoints
Format settings, Matrix                  : Default (MPEG)
Codec ID                                 : V_MS/VFW/FOURCC / XVID
Codec ID/Hint                            : XviD
Duration                                 : 1 h 51 min
Bit rate                                 : 1 499 kb/s
Width                                    : 720 pixels
Height                                   : 408 pixels
Display aspect ratio                     : 16:9
Frame rate mode                          : Constant
Frame rate                               : 23.976 (24000/1001) FPS
Color space                              : YUV
Chroma subsampling                       : 4:2:0
Bit depth                                : 8 bits
Scan type                                : Progressive
Compression mode                         : Lossy
Bits/(Pixel*Frame)                       : 0.213
Stream size                              : 1.17 GiB (79%)
Writing library                          : XviD 67
Default                                  : Yes
Forced                                   : No

Audio #1
ID                                       : 4
Format                                   : MPEG Audio
Format version                           : Version 1
Format profile                           : Layer 3
Format settings                          : Joint stereo / MS Stereo
Codec ID                                 : A_MPEG/L3
Codec ID/Hint                            : MP3
Duration                                 : 1 h 51 min
Bit rate mode                            : Constant
Bit rate                                 : 192 kb/s
Channel(s)                               : 2 channels
Sampling rate                            : 48.0 kHz
Frame rate                               : 41.667 FPS (1152 SPF)
Compression mode                         : Lossy
Stream size                              : 154 MiB (10%)
Writing library                          : LAME3.99r
Encoding settings                        : -m j -V 4 -q 2 -lowpass 18.6 -b 192
Language                                 : Japanese
Default                                  : No
Forced                                   : No

Audio #2
ID                                       : 5
Format                                   : MPEG Audio
Format version                           : Version 1
Format profile                           : Layer 3
Format settings                          : Joint stereo / MS Stereo
Codec ID                                 : A_MPEG/L3
Codec ID/Hint                            : MP3
Duration                                 : 1 h 51 min
Bit rate mode                            : Constant
Bit rate                                 : 192 kb/s
Channel(s)                               : 2 channels
Sampling rate                            : 48.0 kHz
Frame rate                               : 41.667 FPS (1152 SPF)
Compression mode                         : Lossy
Stream size                              : 154 MiB (10%)
Writing library                          : LAME3.99r
Encoding settings                        : -m j -V 4 -q 2 -lowpass 18.6 -b 192
Language                                 : German
Default                                  : Yes
Forced                                   : No

Text #1
ID                                       : 1
Format                                   : PGS
Muxing mode                              : zlib
Codec ID                                 : S_HDMV/PGS
Codec ID/Info                            : Picture based subtitle format used on BDs/HD-DVDs
Duration                                 : 1 h 51 min
Bit rate                                 : 18.3 kb/s
Count of elements                        : 4070
Stream size                              : 14.6 MiB (1%)
Language                                 : German
Default                                  : Yes
Forced                                   : No

Text #2
ID                                       : 2
Format                                   : PGS
Muxing mode                              : zlib
Codec ID                                 : S_HDMV/PGS
Codec ID/Info                            : Picture based subtitle format used on BDs/HD-DVDs
Duration                                 : 1 h 48 min
Bit rate                                 : 642 b/s
Count of elements                        : 150
Stream size                              : 511 KiB (0%)
Language                                 : German
Default                                  : No
Forced                                   : No
Code:
General
Complete name                            : Detektv.Conan.Move.21-Der.purpurrote.Lebesbref.German.AC3.DL.720p.BluRay.x264-AST4u
Format                                   : Matroska
Format version                           : Version 4 / Version 2
File size                                : 3.09 GiB
Duration                                 : 1 h 51 min
Overall bit rate                         : 3 955 kb/s
Encoded date                             : UTC 2018-09-26 18:14:49
Writing application                      : mkvmerge v8.1.0 ('Psychedelic Postcard') 32bit
Writing library                          : libebml v1.3.1 + libmatroska v1.4.2

Video
ID                                       : 3
Format                                   : AVC
Format/Info                              : Advanced Video Codec
Format profile                           : [email protected]
Format settings                          : CABAC / 4 Ref Frames
Format settings, CABAC                   : Yes
Format settings, ReFrames                : 4 frames
Codec ID                                 : V_MPEG4/ISO/AVC
Duration                                 : 1 h 51 min
Bit rate                                 : 3 038 kb/s
Width                                    : 1 280 pixels
Height                                   : 720 pixels
Display aspect ratio                     : 16:9
Frame rate mode                          : Constant
Frame rate                               : 23.976 (24000/1001) FPS
Color space                              : YUV
Chroma subsampling                       : 4:2:0
Bit depth                                : 8 bits
Scan type                                : Progressive
Bits/(Pixel*Frame)                       : 0.137
Stream size                              : 2.38 GiB (77%)
Writing library                          : x264 core 148 r2638 7599210
Encoding settings                        : cabac=1 / ref=3 / deblock=1:0:0 / analyse=0x3:0x113 / me=hex / subme=9 / psy=1 / psy_rd=1.00:0.00 / mixed_ref=1 / me_range=16 / chroma_me=1 / trellis=1 / 8x8dct=1 / cqm=0 / deadzone=21,11 / fast_pskip=1 / chroma_qp_offset=-2 / threads=12 / lookahead_threads=1 / sliced_threads=0 / nr=0 / decimate=1 / interlaced=0 / bluray_compat=0 / constrained_intra=0 / bframes=3 / b_pyramid=2 / b_adapt=2 / b_bias=0 / direct=1 / weightb=1 / open_gop=0 / weightp=2 / keyint=240 / keyint_min=23 / scenecut=40 / intra_refresh=0 / rc_lookahead=40 / rc=crf / mbtree=1 / crf=16.0 / qcomp=0.60 / qpmin=0 / qpmax=69 / qpstep=4 / vbv_maxrate=62500 / vbv_bufsize=78125 / crf_max=0.0 / nal_hrd=none / filler=0 / ip_ratio=1.40 / aq=1:1.00
Default                                  : Yes
Forced                                   : No

Audio #1
ID                                       : 4
Format                                   : AC-3
Format/Info                              : Audio Coding 3
Codec ID                                 : A_AC3
Duration                                 : 1 h 51 min
Bit rate mode                            : Constant
Bit rate                                 : 448 kb/s
Channel(s)                               : 6 channels
Channel positions                        : Front: L C R, Side: L R, LFE
Sampling rate                            : 48.0 kHz
Frame rate                               : 31.250 FPS (1536 SPF)
Bit depth                                : 16 bits
Compression mode                         : Lossy
Stream size                              : 359 MiB (11%)
Language                                 : Japanese
Service kind                             : Complete Main
Default                                  : No
Forced                                   : No

Audio #2
ID                                       : 5
Format                                   : AC-3
Format/Info                              : Audio Coding 3
Codec ID                                 : A_AC3
Duration                                 : 1 h 51 min
Bit rate mode                            : Constant
Bit rate                                 : 448 kb/s
Channel(s)                               : 6 channels
Channel positions                        : Front: L C R, Side: L R, LFE
Sampling rate                            : 48.0 kHz
Frame rate                               : 31.250 FPS (1536 SPF)
Bit depth                                : 16 bits
Compression mode                         : Lossy
Stream size                              : 359 MiB (11%)
Language                                 : German
Service kind                             : Complete Main
Default                                  : Yes
Forced                                   : No

Text #1
ID                                       : 1
Format                                   : PGS
Muxing mode                              : zlib
Codec ID                                 : S_HDMV/PGS
Codec ID/Info                            : Picture based subtitle format used on BDs/HD-DVDs
Duration                                 : 1 h 51 min
Bit rate                                 : 18.3 kb/s
Count of elements                        : 4070
Stream size                              : 14.6 MiB (0%)
Language                                 : German
Default                                  : Yes
Forced                                   : No

Text #2
ID                                       : 2
Format                                   : PGS
Muxing mode                              : zlib
Codec ID                                 : S_HDMV/PGS
Codec ID/Info                            : Picture based subtitle format used on BDs/HD-DVDs
Duration                                 : 1 h 48 min
Bit rate                                 : 642 b/s
Count of elements                        : 150
Stream size                              : 511 KiB (0%)
Language                                 : German
Default                                  : No
Forced                                   : No
Code:
General
Complete name                            : Detektv.Conan.Move.21-Der.purpurrote.Lebesbref.German.AC3.DL.1080p.BluRay.x264-AST4u
Format                                   : Matroska
Format version                           : Version 4 / Version 2
File size                                : 6.59 GiB
Duration                                 : 1 h 51 min
Overall bit rate                         : 8 425 kb/s
Encoded date                             : UTC 2018-09-26 18:12:15
Writing application                      : mkvmerge v8.1.0 ('Psychedelic Postcard') 32bit
Writing library                          : libebml v1.3.1 + libmatroska v1.4.2

Video
ID                                       : 3
Format                                   : AVC
Format/Info                              : Advanced Video Codec
Format profile                           : [email protected]
Format settings                          : CABAC / 4 Ref Frames
Format settings, CABAC                   : Yes
Format settings, ReFrames                : 4 frames
Codec ID                                 : V_MPEG4/ISO/AVC
Duration                                 : 1 h 51 min
Bit rate                                 : 7 508 kb/s
Width                                    : 1 920 pixels
Height                                   : 1 080 pixels
Display aspect ratio                     : 16:9
Frame rate mode                          : Constant
Frame rate                               : 23.976 (24000/1001) FPS
Color space                              : YUV
Chroma subsampling                       : 4:2:0
Bit depth                                : 8 bits
Scan type                                : Progressive
Bits/(Pixel*Frame)                       : 0.151
Stream size                              : 5.87 GiB (89%)
Writing library                          : x264 core 148 r2705+54 9f484c1 t_mod_Custom [8-bit@all X86_64]
Encoding settings                        : cabac=1 / ref=3 / deblock=1:0:0 / analyse=0x3:0x113 / me=hex / subme=9 / psy=1 / fade_compensate=0.00 / psy_rd=1.00:0.00 / mixed_ref=1 / me_range=16 / chroma_me=1 / trellis=1 / 8x8dct=1 / cqm=0 / deadzone=21,11 / fast_pskip=1 / chroma_qp_offset=-2 / threads=24 / lookahead_threads=2 / sliced_threads=0 / nr=0 / decimate=1 / interlaced=0 / bluray_compat=0 / constrained_intra=0 / fgo=0 / bframes=3 / b_pyramid=2 / b_adapt=2 / b_bias=0 / direct=1 / weightb=1 / open_gop=0 / weightp=2 / keyint=240 / keyint_min=23 / scenecut=40 / intra_refresh=0 / rc_lookahead=40 / rc=crf / mbtree=1 / crf=16.0000 / qcomp=0.60 / qpmin=0:0:0 / qpmax=69:69:69 / qpstep=4 / vbv_maxrate=62500 / vbv_bufsize=78125 / crf_max=0.0 / nal_hrd=none / filler=0 / ip_ratio=1.40 / aq=1:1.00 / aq-sensitivity=10.00 / aq-factor=1.00:1.00:1.00 / aq2=0 / aq3=0
Default                                  : Yes
Forced                                   : No

Audio #1
ID                                       : 4
Format                                   : AC-3
Format/Info                              : Audio Coding 3
Codec ID                                 : A_AC3
Duration                                 : 1 h 51 min
Bit rate mode                            : Constant
Bit rate                                 : 448 kb/s
Channel(s)                               : 6 channels
Channel positions                        : Front: L C R, Side: L R, LFE
Sampling rate                            : 48.0 kHz
Frame rate                               : 31.250 FPS (1536 SPF)
Bit depth                                : 16 bits
Compression mode                         : Lossy
Stream size                              : 359 MiB (5%)
Language                                 : Japanese
Service kind                             : Complete Main
Default                                  : No
Forced                                   : No

Audio #2
ID                                       : 5
Format                                   : AC-3
Format/Info                              : Audio Coding 3
Codec ID                                 : A_AC3
Duration                                 : 1 h 51 min
Bit rate mode                            : Constant
Bit rate                                 : 448 kb/s
Channel(s)                               : 6 channels
Channel positions                        : Front: L C R, Side: L R, LFE
Sampling rate                            : 48.0 kHz
Frame rate                               : 31.250 FPS (1536 SPF)
Bit depth                                : 16 bits
Compression mode                         : Lossy
Stream size                              : 359 MiB (5%)
Language                                 : German
Service kind                             : Complete Main
Default                                  : Yes
Forced                                   : No

Text #1
ID                                       : 1
Format                                   : PGS
Muxing mode                              : zlib
Codec ID                                 : S_HDMV/PGS
Codec ID/Info                            : Picture based subtitle format used on BDs/HD-DVDs
Duration                                 : 1 h 51 min
Bit rate                                 : 18.3 kb/s
Count of elements                        : 4070
Stream size                              : 14.6 MiB (0%)
Language                                 : German
Default                                  : Yes
Forced                                   : No

Text #2
ID                                       : 2
Format                                   : PGS
Muxing mode                              : zlib
Codec ID                                 : S_HDMV/PGS
Codec ID/Info                            : Picture based subtitle format used on BDs/HD-DVDs
Duration                                 : 1 h 48 min
Bit rate                                 : 642 b/s
Count of elements                        : 150
Stream size                              : 511 KiB (0%)
Language                                 : German
Default                                  : No
Forced                                   : No
Code:
General
Complete name                            : Detektv.Conan.Move.21-Der.purpurrote.Lebesbref.German.DTS.5.1.DL.1080p.BluRay.x264-AST4u
Format                                   : Matroska
Format version                           : Version 4 / Version 2
File size                                : 11.5 GiB
Duration                                 : 1 h 51 min
Overall bit rate                         : 14.7 Mb/s
Encoded date                             : UTC 2018-09-26 18:09:37
Writing application                      : mkvmerge v8.1.0 ('Psychedelic Postcard') 32bit
Writing library                          : libebml v1.3.1 + libmatroska v1.4.2

Video
ID                                       : 5
Format                                   : AVC
Format/Info                              : Advanced Video Codec
Format profile                           : [email protected]
Format settings                          : CABAC / 4 Ref Frames
Format settings, CABAC                   : Yes
Format settings, ReFrames                : 4 frames
Codec ID                                 : V_MPEG4/ISO/AVC
Duration                                 : 1 h 51 min
Bit rate                                 : 7 508 kb/s
Width                                    : 1 920 pixels
Height                                   : 1 080 pixels
Display aspect ratio                     : 16:9
Frame rate mode                          : Constant
Frame rate                               : 23.976 (24000/1001) FPS
Color space                              : YUV
Chroma subsampling                       : 4:2:0
Bit depth                                : 8 bits
Scan type                                : Progressive
Bits/(Pixel*Frame)                       : 0.151
Stream size                              : 5.87 GiB (51%)
Writing library                          : x264 core 148 r2705+54 9f484c1 t_mod_Custom [8-bit@all X86_64]
Encoding settings                        : cabac=1 / ref=3 / deblock=1:0:0 / analyse=0x3:0x113 / me=hex / subme=9 / psy=1 / fade_compensate=0.00 / psy_rd=1.00:0.00 / mixed_ref=1 / me_range=16 / chroma_me=1 / trellis=1 / 8x8dct=1 / cqm=0 / deadzone=21,11 / fast_pskip=1 / chroma_qp_offset=-2 / threads=24 / lookahead_threads=2 / sliced_threads=0 / nr=0 / decimate=1 / interlaced=0 / bluray_compat=0 / constrained_intra=0 / fgo=0 / bframes=3 / b_pyramid=2 / b_adapt=2 / b_bias=0 / direct=1 / weightb=1 / open_gop=0 / weightp=2 / keyint=240 / keyint_min=23 / scenecut=40 / intra_refresh=0 / rc_lookahead=40 / rc=crf / mbtree=1 / crf=16.0000 / qcomp=0.60 / qpmin=0:0:0 / qpmax=69:69:69 / qpstep=4 / vbv_maxrate=62500 / vbv_bufsize=78125 / crf_max=0.0 / nal_hrd=none / filler=0 / ip_ratio=1.40 / aq=1:1.00 / aq-sensitivity=10.00 / aq-factor=1.00:1.00:1.00 / aq2=0 / aq3=0
Default                                  : Yes
Forced                                   : No

Audio #1
ID                                       : 1
Format                                   : DTS
Format/Info                              : Digital Theater Systems
Format profile                           : MA / Core
Codec ID                                 : A_DTS
Duration                                 : 1 h 51 min
Bit rate mode                            : Variable / Constant
Bit rate                                 : 3 372 kb/s / 1 509 kb/s
Channel(s)                               : 6 channels
Channel positions                        : Front: L C R, Side: L R, LFE
Sampling rate                            : 48.0 kHz
Frame rate                               : 93.750 FPS (512 SPF)
Bit depth                                : 24 bits
Compression mode                         : Lossless / Lossy
Stream size                              : 2.64 GiB (23%)
Language                                 : Japanese
Default                                  : No
Forced                                   : No

Audio #2
ID                                       : 2
Format                                   : DTS
Format/Info                              : Digital Theater Systems
Format profile                           : MA / Core
Codec ID                                 : A_DTS
Duration                                 : 1 h 51 min
Bit rate mode                            : Variable / Constant
Bit rate                                 : 3 840 kb/s / 1 509 kb/s
Channel(s)                               : 6 channels
Channel positions                        : Front: L C R, Side: L R, LFE
Sampling rate                            : 48.0 kHz
Frame rate                               : 93.750 FPS (512 SPF)
Bit depth                                : 24 bits
Compression mode                         : Lossless / Lossy
Stream size                              : 2.96 GiB (26%)
Language                                 : German
Default                                  : Yes
Forced                                   : No

Text #1
ID                                       : 3
Format                                   : PGS
Muxing mode                              : zlib
Codec ID                                 : S_HDMV/PGS
Codec ID/Info                            : Picture based subtitle format used on BDs/HD-DVDs
Duration                                 : 1 h 51 min
Bit rate                                 : 18.3 kb/s
Count of elements                        : 4070
Stream size                              : 14.6 MiB (0%)
Language                                 : German
Default                                  : Yes
Forced                                   : No

Text #2
ID                                       : 4
Format                                   : PGS
Muxing mode                              : zlib
Codec ID                                 : S_HDMV/PGS
Codec ID/Info                            : Picture based subtitle format used on BDs/HD-DVDs
Duration                                 : 1 h 48 min
Bit rate                                 : 642 b/s
Count of elements                        : 150
Stream size                              : 511 KiB (0%)
Language                                 : German
Default                                  : No
Forced                                   : No
download.png

Onlinestatus:
Rapidgator
F45FA16A8D.png
ddownload
6AA700A8C0.png

To view the content, you need to Sign In or Register.
 
Zuletzt bearbeitet:

Uploading123

High Quality Anime
Nolife
7 März 2013
655
20.943
113

Detektiv Conan Movie 21

za8emn8x.jpg


.:Beschreibung:.
Kleiner Detektiv, ganz groß!
Conan und seine Freunde sind zu Besuch bei Nichiuri-TV in Osaka. Natürlich sind auch Heiji und seine Freundin Kazuha mit von der Partie, als alle zusammen der Fernsehaufzeichnung eines Karuta-Duells – ein populäres japanisches Kartenspiel – beiwohnen. Als plötzlich jedoch eine Bombendrohung eingeht und kurz darauf tatsächlich Explosionen den Sender erschüttern, müssen Conan und Heiji einmal mehr zusammenarbeiten, um alle Anwesenden in Sicherheit zu bringen. Weil in Kyoto außerdem ein bekannter Karuta-Spieler ermordet wurde, steht schnell fest, dass auch das bevorstehende große Karuta-Turnier unter einem gefährlichen Stern steht. Während die beiden Detektive zusammen mit der Polizei unter Hochdruck ermitteln, kämpft Kazuha wie eine Löwin um den Einzug ins große Finale des Karuta-Satsuki-Cup. Denn Momiji, ihre stärkste Rivalin im Turnier, behauptet doch tatsächlich, Heijis Verlobte zu sein!

.:Info:.
Größe: 11768 MB
Laufzeit: 111 Min.
Format: .mkv
Video Stream: BD
Video Codec: MPEG-4 H.264 / AVC
Audio Stream: DTS-HD MA 5.1
Sprache/n: GER, JPN
Untertitel: GER
Releaser: AST4u
Hoster: SO, RG

.:NFO:.
Code:
Detektiv.Conan.Movie.21.German.DTS.5.1.DL.1080p.BluRay.x264-AST4u (NEU)

Originaltitel: Meitantei Conan: Kara Kurenai no Love Letter
Sprache: Deutsch, Japanisch
Untertitel: Deutsch
FSK: 12 Jahre
Erscheinungstermin: 28.09.2018 NEU
Genre: Action, Krimi, Drama, Romance, Mystery
Source: BluRay
Releasedatum: 26.09.2018

Format                                   : Matroska
Dateigroesse                             : 11.40 GB
Dauer                                    : 113 Minuten
Gesamte Bitrate                          : 14,7 Mb/s

Video
Format                                   : AVC
Format-Profil                            : [email protected]
Bitraten-Modus                           : crf 16
Breite                                   : 1 920 Pixel
H he                                     : 1 080 Pixel
BildseitenverhSltnis                     : 16:9
Modus der Bildwiederholungsrate          : konstant
Bildwiederholungsrate                    : 23,976 FPS

Audio

deutsch: DTS-HD Audio 5.1
Bitrate: 3 643 Kbps / 1 509 Kbps

japanisch: DTS-HD Audio Audio 5.1
Bitrate: 3 749 Kbps / 1 509 Kbps

Original BluRay und encodet by AST4u-HD-Crew

Detektiv Conan - Der 21. Film: Der purpurrote Liebesbrief

Kleiner Detektiv, ganz gro !

Conan und seine Freunde sind zu Besuch bei Nichiuri-TV in Osaka. Natnrlich sind auch Heiji
  und seine Freundin Kazuha mit von der Partie, als alle zusammen der Fernsehaufzeichnung
  eines Karuta-Duells û ein populSres japanisches Kartenspiel û beiwohnen. Als pl tzlich
  jedoch eine Bombendrohung eingeht und kurz darauf tatsSchlich Explosionen den Sender
  erschnttern, mnssen Conan und Heiji einmal mehr zusammenarbeiten, um alle Anwesenden in
  Sicherheit zu bringen. Weil in Kyoto au erdem ein bekannter Karuta-Spieler ermordet wurde,
  steht schnell fest, dass auch das bevorstehende gro e Karuta-Turnier unter einem
  gefShrlichen Stern steht. WShrend die beiden Detektive zusammen mit der Polizei unter
  Hochdruck ermitteln, kSmpft Kazuha wie eine L win um den Einzug ins gro e Finale des
  Karuta-Satsuki-Cup. Denn Momiji, ihre stSrkste Rivalin im Turnier, behauptet doch
  tatsSchlich, Heijis Verlobte zu sein!

Der einundzwanzigste Spielfilm aus der durch ihre jahrelange Ausstrahlung auf RTL II
  bekannten und Su erst erfolgreichen Detektiv Conan-Reihe von Gosho Aoyama. Conan in
  KinoqualitSt û spannend, mitrei end und nberraschend bis zur letzten Sekunde!

https://ast4u.me


Mirrors kompatibel

.:Share-online.biz:.
9EF3E77A4A.png

To view the content, you need to Sign In or Register.

.:Rapidgator.net:.
7A9027EF8F.png

To view the content, you need to Sign In or Register.