Welcome to our Community
Wanting to join the rest of our members? Feel free to sign up today.
Sign up

Miss Kobayashi's Dragon Maid S[Ger-Dub][Ger-Sub][1080p][x264][WebRip] - Crunchyroll

Kleinmike

Uploader
Otaku König
21 März 2021
284
4.682
93
Miss Kobayashi’s Dragon Maid S
小林さんちのメイドラゴン S

14169.webp


Beschreibung:
Kobayashi-san Chi no Maid Dragon 2 ist die zweite Staffel der Anime-Umsetzung zu Cool Kyoushinjas gleichnamigem Manga. Nachdem Tohrus Vater, der Herr des Untergangs, seinen Willen durchsetzen und Tohru in der magischen Heimat der Drachen gefangen halten wollte, stellten sowohl Tohru als auch Kobayashi fest, dass sie nicht mehr ohneeinander sein wollen. Tohru konnte sich einen Weg aus der magischen Welt bahnen und nun lag es an Kobayashi, dem Herrn des Untergangs klarzumachen, dass er die Wünsche seiner Tochter respektieren soll!

Nach dem Showdown zwischen Kobayashi, Tohru und Tohrus Vater kehrt wieder Normalität in ihrem Alltag ein und Tohru kann sich wieder voll und ganz darauf fokussieren, eine fabelhafte Maid zu sein! Doch dabei hat sie noch einiges zu lernen und auch für die kleine Kanna geht der Schulalltag mit all seinen Problemen weiter.
Quelle: anisearch.de

Folgen: 12/12
Größe pro Folge: ~1500 MB
Sprache: Deutsch
Untertitel: Deutsch
Jahr: 2021
Genres: Komödie, Alltagsleben, Ecchi, Fantasy
Auflösung: 1920x1080
Format: MKV
Videocodec: H264
Farbtiefe: 8bit
Audiocodec: AAC
Publisher: Kazé Deutschland
Hoster: DDownload | Uploaded

Mediainfo:
Code:
General
Complete name                            : Miss Kobayashi's Dragon Maid S02.E01.1080p.x264.Ger-Dub - Kleinmike .mkv
Format                                   : MPEG-4
Format profile                           : Base Media
Codec ID                                 : isom (isom/iso2/avc1/mp41)
File size                                : 1.58 GiB
Duration                                 : 23 min 40 s
Overall bit rate                         : 9 543 kb/s
Writing application                      : Lavf58.27.103
FileExtension_Invalid                    : braw mov mp4 m4v m4a m4b m4p m4r 3ga 3gpa 3gpp 3gp 3gpp2 3g2 k3g jpm jpx mqv ismv isma ismt f4a f4b f4v

Video
ID                                       : 1
Format                                   : AVC
Format/Info                              : Advanced Video Codec
Format profile                           : High@L5
Format settings                          : CABAC / 12 Ref Frames
Format settings, CABAC                   : Yes
Format settings, Reference frames        : 12 frames
Codec ID                                 : avc1
Codec ID/Info                            : Advanced Video Coding
Duration                                 : 23 min 39 s
Bit rate                                 : 9 282 kb/s
Width                                    : 1 920 pixels
Height                                   : 1 080 pixels
Display aspect ratio                     : 16:9
Frame rate mode                          : Variable
Frame rate                               : 23.976 (23976/1000) FPS
Minimum frame rate                       : 23.974 FPS
Maximum frame rate                       : 3 461.538 FPS
Color space                              : YUV
Chroma subsampling                       : 4:2:0
Bit depth                                : 8 bits
Scan type                                : Progressive
Bits/(Pixel*Frame)                       : 0.187
Stream size                              : 1.53 GiB (97%)
Writing library                          : x264 core 161 r3053 c347e7a
Encoding settings                        : cabac=1 / ref=12 / deblock=1:0:-1 / analyse=0x3:0x133 / me=umh / subme=10 / psy=1 / psy_rd=0.70:0.15 / mixed_ref=1 / me_range=24 / chroma_me=1 / trellis=2 / 8x8dct=1 / cqm=0 / deadzone=21,11 / fast_pskip=1 / chroma_qp_offset=-3 / threads=8 / lookahead_threads=2 / sliced_threads=0 / nr=0 / decimate=0 / interlaced=0 / bluray_compat=0 / constrained_intra=0 / bframes=16 / b_pyramid=2 / b_adapt=2 / b_bias=0 / direct=3 / weightb=1 / open_gop=0 / weightp=2 / keyint=192 / keyint_min=19 / scenecut=0 / intra_refresh=0 / rc_lookahead=80 / rc=crf / mbtree=1 / crf=15.0 / qcomp=0.60 / qpmin=0 / qpmax=69 / qpstep=4 / vbv_maxrate=20480 / vbv_bufsize=40960 / crf_max=0.0 / nal_hrd=none / filler=0 / ip_ratio=1.40 / aq=3:1.10
Codec configuration box                  : avcC

Audio
ID                                       : 2
Format                                   : AAC LC
Format/Info                              : Advanced Audio Codec Low Complexity
Codec ID                                 : mp4a-40-2
Duration                                 : 23 min 40 s
Bit rate mode                            : Constant
Bit rate                                 : 256 kb/s
Channel(s)                               : 2 channels
Channel layout                           : L R
Sampling rate                            : 48.0 kHz
Frame rate                               : 46.875 FPS (1024 SPF)
Compression mode                         : Lossy
Stream size                              : 43.3 MiB (3%)
Default                                  : Yes
Alternate group                          : 1

Status:
1080p:
B4B09E8B17.png

To view the content, you need to Sign In or Register.


 
Zuletzt bearbeitet: