• Angebote, die sich im Download-Archiv befinden, können möglicherweise offline sein. Bitte wende Dich an den Uploader oder an andere Uploader, um einen Reupload zu erbitten.
Welcome to our Community
Wanting to join the rest of our members? Feel free to sign up today.
Sign up

Mother of the Goddess Dormitory[Jap-Dub][Ger-Sub][1080p][Web-DL][Amazon] - Kleinmike

Kleinmike

Uploader
Otaku König
21 März 2021
284
4.683
93
Mother of the Goddess’ Dormitory
女神寮の寮母くん。

15212.webp

Beschreibung:
Der 12-jährige Koushi Nagumi wird von seinem Vater ausgesetzt, nachdem ihr Wohnhaus abgebrannt ist. Mittel- und obdachlos und ohne jemanden, der sich um ihn kümmert, lebt er nun auf der Straße, bis er eines Tages völlig ausgehungert zusammenbricht. Er wird von ein Mädchen namens Mineru gefunden, die ihm Essen und eine Unterkunft anbietet – in einem Studentenwohnheim für Frauen! Jedoch ist dieses „Wohnheim der Göttin“ dafür berüchtigt, vor allem äußerst schwierige Persönlichkeiten aufzunehmen. Und nun muss Koushi auch noch als Hauswart für diese eigentümlichen und exzentrischen Damen im Wohnheim arbeiten, womit sein neues, nicht ganz ecchifreies Leben beginnt …
Quelle: anisearch.de

Folgen: 10/10
Größe pro Folge: ~550 MB
Sprache: Japanisch
Untertitel: Deutsch Harddub
Jahr: 2021
Genres: Romantische Komödie, Ecchi, Harem, Komödie, Romanze
Auflösung: 1920x1080
Format: MKV
Videocodec: H264
Farbtiefe: 8bit
Audiocodec: AAC LC
Publisher: AniMoon Publishing GmbH
Hoster: DDownload | Uploaded

Mediainfo:
Code:
Format                                   : Matroska
Format version                           : Version 4
File size                                : 573 MiB
Duration                                 : 24 min 10 s
Overall bit rate                         : 3 316 kb/s
Encoded date                             : UTC 2021-08-06 07:28:14
Writing application                      : mkvmerge v60.0.0 ('Are We Copies?') 64-bit
Writing library                          : libebml v1.4.2 + libmatroska v1.6.4

Video
ID                                       : 1
Format                                   : AVC
Format/Info                              : Advanced Video Codec
Format profile                           : High@L4
Format settings                          : CABAC / 4 Ref Frames
Format settings, CABAC                   : Yes
Format settings, Reference frames        : 4 frames
Codec ID                                 : V_MPEG4/ISO/AVC
Duration                                 : 24 min 10 s
Bit rate                                 : 3 186 kb/s
Width                                    : 1 920 pixels
Height                                   : 1 080 pixels
Display aspect ratio                     : 16:9
Frame rate mode                          : Constant
Frame rate                               : 23.976 (24000/1001) FPS
Color space                              : YUV
Chroma subsampling                       : 4:2:0
Bit depth                                : 8 bits
Scan type                                : Progressive
Bits/(Pixel*Frame)                       : 0.064
Stream size                              : 551 MiB (96%)
Language                                 : English
Default                                  : Yes
Forced                                   : No
Color range                              : Limited
Color primaries                          : BT.709
Transfer characteristics                 : BT.709
Matrix coefficients                      : BT.709

Audio
ID                                       : 2
Format                                   : AAC LC
Format/Info                              : Advanced Audio Codec Low Complexity
Codec ID                                 : A_AAC-2
Duration                                 : 24 min 10 s
Bit rate                                 : 128 kb/s
Channel(s)                               : 2 channels
Channel layout                           : L R
Sampling rate                            : 48.0 kHz
Frame rate                               : 46.875 FPS (1024 SPF)
Compression mode                         : Lossy
Stream size                              : 22.1 MiB (4%)
Language                                 : English
Default                                  : Yes
Forced                                   : No
1080p:
BD82B35C4B.png


To view the content, you need to Sign In or Register.
 
Zuletzt bearbeitet: