Welcome to our Community
Wanting to join the rest of our members? Feel free to sign up today.
Sign up

Mushoku Tensei: Jobless Reincarnation Part 2 [Ger-Dub][1080p][x264][WebDL] - Wakanim

Kleinmike

Uploader
Otaku König
21 März 2021
279
4.431
93
Mushoku Tensei: Jobless Reincarnation
無職転生 ~異世界行ったら本気だす~

14254.webp


Beschreibung:
In »Mushoku Tensei: Jobless Reincarnation«, der Anime-Adaption zu Rifujin na Magonotes gleichnamiger Light Novel beschließt ein 34-jähriger NEET, der von seiner Familie verstoßen wird und sich am Tiefpunkt seines Lebens befindet, einen Neuanfang. Doch dazu kommt es nicht mehr: Er stirbt kurz darauf bei einem Verkehrsunfall. In einer fremden Welt, in der Schwertkunst und Magie den Alltag bestimmen, wird er als Rudeus Greyrat wiedergeboren und beginnt sein neues Leben als Säugling. Er behält dabei jedoch all sein Wissen aus seiner ursprünglichen Welt und schwört sich, die Fehler seines früheren Lebens nicht zu wiederholen. Gesegnet nicht nur mit Wissen, sondern auch mit einer gewaltigen Menge an magischen Kräften, wird er schnell als Wunderkind angesehen. Seiner Gabe entsprechend wird er sowohl von starken Kriegern wie seinem Vater als auch von der Magierin Roxy ausgebildet, sodass er schnell zu einem hochbegabten Magier reift.

Trotz seines augenscheinlichen Genies, seines unschuldigen Aussehens und seinem Schwur bleibt der überaus perverse Otaku in ihm weiterhin bestehen und so nutzt er sein neues Aussehen in Kombination mit seinem Vorwissen, um bei Frauen zu landen, bei denen er früher nicht den Hauch einer Chance gehabt hätte …
Quelle: aniSearch


Folgen: 12/12
Größe pro Folge: ~717 MB
Sprache: Deutsch
Jahr: 2021
Genres: Abenteuer, Action, Fantasy, Harem
Auflösung: 1920x1080
Format: MKV
Videocodec: H264
Farbtiefe: 8bit
Audiocodec: AAC
Publisher: Wakanim DE
Hoster: DDownload | Uploaded

Mediainfo:
Code:
Format                                   : Matroska
Format version                           : Version 4
File size                                : 733 MiB
Duration                                 : 23 min 48 s
Overall bit rate                         : 4 308 kb/s
Writing application                      : Lavf58.76.100
Writing library                          : Lavf58.76.100
ErrorDetectionType                       : Per level 1

Video
ID                                       : 1
Format                                   : AVC
Format/Info                              : Advanced Video Codec
Format profile                           : Main@L4
Format settings                          : 4 Ref Frames
Format settings, CABAC                   : No
Format settings, Reference frames        : 4 frames
Codec ID                                 : V_MPEG4/ISO/AVC
Duration                                 : 23 min 48 s
Bit rate                                 : 4 144 kb/s
Width                                    : 1 920 pixels
Height                                   : 1 080 pixels
Display aspect ratio                     : 16:9
Frame rate mode                          : Constant
Frame rate                               : 23.976 FPS
Color space                              : YUV
Chroma subsampling                       : 4:2:0
Bit depth                                : 8 bits
Scan type                                : Progressive
Bits/(Pixel*Frame)                       : 0.083
Stream size                              : 706 MiB (96%)
Default                                  : Yes
Forced                                   : No
Color range                              : Limited
Color primaries                          : BT.709
Transfer characteristics                 : BT.709
Matrix coefficients                      : BT.709

Audio
ID                                       : 2
Format                                   : AAC LC
Format/Info                              : Advanced Audio Codec Low Complexity
Codec ID                                 : A_AAC-2
Duration                                 : 23 min 48 s
Bit rate                                 : 160 kb/s
Channel(s)                               : 2 channels
Channel layout                           : L R
Sampling rate                            : 48.0 kHz
Frame rate                               : 46.875 FPS (1024 SPF)
Compression mode                         : Lossy
Delay relative to video                  : -21 ms
Stream size                              : 27.2 MiB (4%)
Title                                    : Stereo
Language                                 : German
Default                                  : Yes
Forced                                   : No

Text
ID                                       : 3
Format                                   : D_WEBVTT/SUBTITLES
Codec ID                                 : D_WEBVTT/SUBTITLES
Duration                                 : 23 min 48 s
Default                                  : Yes
Forced                                   : No
Status:
1080p:
ABC9DCF0FC.png

To view the content, you need to Sign In or Register.


 
Zuletzt bearbeitet: