Welcome to our Community
Wanting to join the rest of our members? Feel free to sign up today.
Sign up

My Teen Romantic Comedy SNAFU[Ger-Jap-Dub][Ger-Sub][AC3|DTS-HD][720p|1080p][x264|x265][BluRay] - ABJ

supersonik

Otaku König
7 Jan. 2018
223
26.973
98

My Teen Romantic Comedy SNAFU
Yahari Ore no Seishun Lovecome wa Machigatte Iru.
やはり俺の青春ラブコメはまちがっている。
KsDGIgZ.jpg


Beschreibung:
Hachiman Hikigaya ist bereits im zweiten Jahr der Oberschule, hat allerdings als Mustereinzelgänger und Außenseiter weder Freunde noch sozialen Anschluss gefunden. Doch das soll sich jetzt ändern, meint seine Klassenlehrerin Shizuka Hiratsuka, und zwingt ihn mehr oder weniger, einem Club beizutreten. Hierbei handelt es sich um den »Service Club« und Hachiman staunt nicht schlecht, als er im Clubraum nur eine Person vorfindet: die Präsidentin und auch das einzige Mitglied besagten Clubs, Yukino Yukinoshita. Schnell wird klar, dass auch sie trotz ihrer Schönheit und Intelligenz nicht sonderlich gesellig ist, und fortan müssen die beiden entgegen ihrer unterschiedlichen Methoden und Ideale zusammenarbeiten und anderen im Namen des Service Clubs helfen, um vielleicht irgendwann einmal sich selbst helfen zu können.
by anisearch.de

Episoden: 13/13
Größe: ~650 MB | ~1740 MB | ~1480 MB
Releaser: Anime BluRay Junkies
Art: Lizenzrelease
Sprache: Deutsch | Japanisch
Untertitel: Deutsch
Jahr: 2013
Genres: Romantische Komödie, Erwachsenwerden, Gegenwart, Klubs, Schule
Auflösung: 1280x720 | 1920x1080
Format: MKV
Quelle: BluRay
Videocodec: x264 | x265
Farbtiefe: 8bit
Audiocodec: AC3 | DTS-HD
Publisher: Brain's Base | Animoon Publishing GmbH
Hoster: DDownload | Uploaded


Mediainfo:
Code:
[LEFT]
General
Unique ID                                : 26508176413411494105761104328481888256 (0x13F14A00A8ED709B450C8425B3F0D800)
Complete name                            : My.Teen.Romantic.Comedy.SNAFU.S01E01.German.DL.AC3.720p.BluRay.x264-ABJ.mkv
Format                                   : Matroska
Format version                           : Version 4
File size                                : 645 MiB
Duration                                 : 24 min 14 s
Overall bit rate                         : 3 722 kb/s
Encoded date                             : UTC 2020-12-23 16:27:18
Writing application                      : mkvmerge v51.0.0 ('I Wish') 64-bit
Writing library                          : libebml v1.4.0 + libmatroska v1.6.2 / Lavf58.42.101
VERSION                                  : 1.1

Video
ID                                       : 1
Format                                   : AVC
Format/Info                              : Advanced Video Codec
Format profile                           : [email protected]
Format settings                          : CABAC / 12 Ref Frames
Format settings, CABAC                   : Yes
Format settings, Reference frames        : 12 frames
Codec ID                                 : V_MPEG4/ISO/AVC
Duration                                 : 24 min 9 s
Bit rate                                 : 2 430 kb/s
Width                                    : 1 280 pixels
Height                                   : 720 pixels
Display aspect ratio                     : 16:9
Frame rate mode                          : Constant
Frame rate                               : 23.976 (24000/1001) FPS
Color space                              : YUV
Chroma subsampling                       : 4:2:0
Bit depth                                : 8 bits
Scan type                                : Progressive
Bits/(Pixel*Frame)                       : 0.110
Stream size                              : 420 MiB (65%)
Default                                  : Yes
Forced                                   : No
Color range                              : Limited
Color primaries                          : BT.709
Transfer characteristics                 : BT.709
Matrix coefficients                      : BT.709

Audio #1
ID                                       : 2
Format                                   : AC-3
Format/Info                              : Audio Coding 3
Commercial name                          : Dolby Digital
Codec ID                                 : A_AC3
Duration                                 : 24 min 14 s
Bit rate mode                            : Constant
Bit rate                                 : 640 kb/s
Channel(s)                               : 2 channels
Channel layout                           : L R
Sampling rate                            : 48.0 kHz
Frame rate                               : 31.250 FPS (1536 SPF)
Compression mode                         : Lossy
Stream size                              : 111 MiB (17%)
Title                                    : Stereo
Language                                 : German
Service kind                             : Complete Main
Default                                  : Yes
Forced                                   : No

Audio #2
ID                                       : 3
Format                                   : AC-3
Format/Info                              : Audio Coding 3
Commercial name                          : Dolby Digital
Codec ID                                 : A_AC3
Duration                                 : 24 min 14 s
Bit rate mode                            : Constant
Bit rate                                 : 640 kb/s
Channel(s)                               : 2 channels
Channel layout                           : L R
Sampling rate                            : 48.0 kHz
Frame rate                               : 31.250 FPS (1536 SPF)
Compression mode                         : Lossy
Stream size                              : 111 MiB (17%)
Title                                    : Stereo
Language                                 : Japanese
Service kind                             : Complete Main
Default                                  : No
Forced                                   : No

Text
ID                                       : 4
Format                                   : PGS
Muxing mode                              : zlib
Codec ID                                 : S_HDMV/PGS
Codec ID/Info                            : Picture based subtitle format used on BDs/HD-DVDs
Duration                                 : 23 min 53 s
Bit rate                                 : 50.9 kb/s
Count of elements                        : 864
Stream size                              : 8.69 MiB (1%)
Language                                 : German
Default                                  : No
Forced                                   : No

Menu
00:00:00.000                             : :Chapter 01
00:01:06.983                             : :Chapter 02
00:02:36.531                             : :Chapter 03
00:10:58.908                             : :Chapter 04
00:22:10.704                             : :Chapter 05
00:23:39.543                             : :Chapter 06
[/LEFT]
Code:
[LEFT]
General
Unique ID                                : 187628238645972167945884914048983056187 (0x8D27E262EEBCEAF34E25869810E73F3B)
Complete name                            : My.Teen.Romantic.Comedy.SNAFU.S01E01.German.DL.DTS.1080p.BluRay.x264-ABJ.mkv
Format                                   : Matroska
Format version                           : Version 4
File size                                : 1.74 GiB
Duration                                 : 24 min 14 s
Overall bit rate mode                    : Variable
Overall bit rate                         : 10.3 Mb/s
Encoded date                             : UTC 2020-12-23 16:30:46
Writing application                      : mkvmerge v51.0.0 ('I Wish') 64-bit
Writing library                          : libebml v1.4.0 + libmatroska v1.6.2 / Lavf58.42.101
VERSION                                  : 1.1

Video
ID                                       : 1
Format                                   : AVC
Format/Info                              : Advanced Video Codec
Format profile                           : [email protected]
Format settings                          : CABAC / 12 Ref Frames
Format settings, CABAC                   : Yes
Format settings, Reference frames        : 12 frames
Codec ID                                 : V_MPEG4/ISO/AVC
Duration                                 : 24 min 9 s
Bit rate                                 : 7 128 kb/s
Width                                    : 1 920 pixels
Height                                   : 1 080 pixels
Display aspect ratio                     : 16:9
Frame rate mode                          : Constant
Frame rate                               : 23.976 (24000/1001) FPS
Color space                              : YUV
Chroma subsampling                       : 4:2:0
Bit depth                                : 8 bits
Scan type                                : Progressive
Bits/(Pixel*Frame)                       : 0.143
Stream size                              : 1.20 GiB (69%)
Default                                  : Yes
Forced                                   : No
Color range                              : Limited
Color primaries                          : BT.709
Transfer characteristics                 : BT.709
Matrix coefficients                      : BT.709

Audio #1
ID                                       : 2
Format                                   : DTS XLL
Format/Info                              : Digital Theater Systems
Commercial name                          : DTS-HD Master Audio
Codec ID                                 : A_DTS
Duration                                 : 24 min 14 s
Bit rate mode                            : Variable
Bit rate                                 : 1 566 kb/s
Channel(s)                               : 2 channels
Channel layout                           : L R
Sampling rate                            : 48.0 kHz
Frame rate                               : 93.750 FPS (512 SPF)
Bit depth                                : 16 bits
Compression mode                         : Lossless
Stream size                              : 272 MiB (15%)
Title                                    : Stereo
Language                                 : German
Default                                  : Yes
Forced                                   : No

Audio #2
ID                                       : 3
Format                                   : DTS XLL
Format/Info                              : Digital Theater Systems
Commercial name                          : DTS-HD Master Audio
Codec ID                                 : A_DTS
Duration                                 : 24 min 14 s
Bit rate mode                            : Variable
Bit rate                                 : 1 569 kb/s
Channel(s)                               : 2 channels
Channel layout                           : L R
Sampling rate                            : 48.0 kHz
Frame rate                               : 93.750 FPS (512 SPF)
Bit depth                                : 16 bits
Compression mode                         : Lossless
Stream size                              : 272 MiB (15%)
Title                                    : Stereo
Language                                 : Japanese
Default                                  : No
Forced                                   : No

Text
ID                                       : 4
Format                                   : PGS
Muxing mode                              : zlib
Codec ID                                 : S_HDMV/PGS
Codec ID/Info                            : Picture based subtitle format used on BDs/HD-DVDs
Duration                                 : 23 min 53 s
Bit rate                                 : 50.9 kb/s
Count of elements                        : 864
Stream size                              : 8.69 MiB (0%)
Language                                 : German
Default                                  : No
Forced                                   : No

Menu
00:00:00.000                             : :Chapter 01
00:01:06.983                             : :Chapter 02
00:02:36.531                             : :Chapter 03
00:10:58.908                             : :Chapter 04
00:22:10.704                             : :Chapter 05
00:23:39.543                             : :Chapter 06
[/LEFT]
Code:
[LEFT]
General
Unique ID                                : 327933988197634798997044236598985866699 (0xF6B5C9EC8464E6A75A99C1BAF1D3BDCB)
Complete name                            : My.Teen.Romantic.Comedy.SNAFU.S01E01.German.DL.DTS.1080p.BluRay.x265-ABJ.mkv
Format                                   : Matroska
Format version                           : Version 4
File size                                : 1.48 GiB
Duration                                 : 24 min 14 s
Overall bit rate mode                    : Variable
Overall bit rate                         : 8 710 kb/s
Encoded date                             : UTC 2020-12-28 08:12:27
Writing application                      : mkvmerge v51.0.0 ('I Wish') 64-bit
Writing library                          : libebml v1.4.0 + libmatroska v1.6.2

Video
ID                                       : 1
Format                                   : HEVC
Format/Info                              : High Efficiency Video Coding
Format profile                           : [email protected]@High
Codec ID                                 : V_MPEGH/ISO/HEVC
Duration                                 : 24 min 14 s
Width                                    : 1 920 pixels
Height                                   : 1 080 pixels
Display aspect ratio                     : 16:9
Frame rate mode                          : Constant
Frame rate                               : 23.976 (24000/1001) FPS
Color space                              : YUV
Chroma subsampling                       : 4:2:0
Bit depth                                : 8 bits
Language                                 : Japanese
Default                                  : Yes
Forced                                   : No
Duration_Source                          : General_Duration

Audio #1
ID                                       : 2
Format                                   : DTS XLL
Format/Info                              : Digital Theater Systems
Commercial name                          : DTS-HD Master Audio
Codec ID                                 : A_DTS
Duration                                 : 24 min 14 s
Bit rate mode                            : Variable
Channel(s)                               : 2 channels
Channel layout                           : L R
Sampling rate                            : 48.0 kHz
Frame rate                               : 93.750 FPS (512 SPF)
Bit depth                                : 16 bits
Compression mode                         : Lossless
Language                                 : German
Default                                  : Yes
Forced                                   : No
Duration_Source                          : General_Duration

Audio #2
ID                                       : 3
Format                                   : DTS XLL
Format/Info                              : Digital Theater Systems
Commercial name                          : DTS-HD Master Audio
Codec ID                                 : A_DTS
Duration                                 : 24 min 14 s
Bit rate mode                            : Variable
Channel(s)                               : 2 channels
Channel layout                           : L R
Sampling rate                            : 48.0 kHz
Frame rate                               : 93.750 FPS (512 SPF)
Bit depth                                : 16 bits
Compression mode                         : Lossless
Language                                 : Japanese
Default                                  : No
Forced                                   : No
Duration_Source                          : General_Duration

Text
ID                                       : 4
Format                                   : PGS
Muxing mode                              : zlib
Codec ID                                 : S_HDMV/PGS
Codec ID/Info                            : Picture based subtitle format used on BDs/HD-DVDs
Language                                 : German
Default                                  : No
Forced                                   : No

Menu
00:00:00.000                             : en:Chapter 01
00:01:06.983                             : en:Chapter 02
00:02:36.531                             : en:Chapter 03
00:10:58.908                             : en:Chapter 04
00:22:10.704                             : en:Chapter 05
00:23:39.543                             : en:Chapter 06
[/LEFT]
x264-720p-ac3:
A00EE0C3F6.png

x264-1080p-dts:
6A6FF21F3E.png

x265-1080p-dts:
038770974A.png

To view the content, you need to Sign In or Register.

 
Zuletzt bearbeitet: