Welcome to our Community
Wanting to join the rest of our members? Feel free to sign up today.
Sign up

Sammelthread One Piece E861-XXX [Laufend][Jap-Dub][Ger-Sub][1080p Plus][Web-DL] - AoD/CR

Azugo

H͓̽u͓̽g͓̽o͓̽ ͓̽&͓̽ ͓̽A͓̽z͓̽u͓̽r͓̽a͓̽
Otaku Gott
Uploader
25 März 2020
3.530
34.250
118
One Piece
E861 - E1094


fcx4t3o.png


oie_bchbujbgr3vm-png.30595

Die Neue Welt – unendliche Ozeanweiten. Dies sind die Abenteuer von Ruffy und seiner Strohhutbande.
Im Wano-Land-Arc verschlägt es Ruffy und Co. ins Land der Samurai, das unter der Knechtschaft von Kaidou steht. Dort warten neue Freunde, aber auch gefährliche Gegner auf sie.

oie_bchbujbgr3vm1-png.30596


Episoden: ab E861-xxx
Spieldauer: 24 Min.
Source: WebRip
Format: MKV
Video-Codec: x264
Audio-Codec: AAC
Sprache: Japanisch
Untertitel: Deutsch, Englisch ab E1000
Publisher: Anime On Demand (Kazé Deutschland), ab 1000 Crunchycroll
Auflösung: 1920x1080 Plus, 1920x1080
Größe: 1700MB
Hoster:
rapidgator-gif.30742
Rapidgator,
ddownload-gif.30720
ddownload

Format : Matroska
Format version : Version 4
File size : 1.65 GiB
Duration : 23 min 55 s
Overall bit rate : 9 880 kb/s
Encoded date : UTC 2019-02-27 01:50:07
Writing application : mkvmerge v10.0.0 ('To Drown In You') 64bit
Writing library : libebml v1.3.4 + libmatroska v1.4.5

Video
ID : 1
Format : AVC
Format/Info : Advanced Video Codec
Format profile : High@L5
Format settings : CABAC / 12 Ref Frames
Format settings, CABAC : Yes
Format settings, ReFrames : 12 frames
Codec ID : V_MPEG4/ISO/AVC
Duration : 23 min 55 s
Bit rate : 9 622 kb/s
Width : 1 920 pixels
Height : 1 080 pixels
Display aspect ratio : 16:9
Frame rate mode : Constant
Frame rate : 23.976 (24000/1001) FPS
Color space : YUV
Chroma subsampling : 4:2:0
Bit depth : 8 bits
Scan type : Progressive
Bits/(Pixel*Frame) : 0.194
Stream size : 1.61 GiB (97%)
Writing library : x264 core 152 r2851 ba24899
Encoding settings : cabac=1 / ref=12 / deblock=1:0:-1 / analyse=0x3:0x133 / me=umh / subme=10 / psy=1 / psy_rd=0.70:0.15 / mixed_ref=1 / me_range=24 / chroma_me=1 / trellis=2 / 8x8dct=1 / cqm=0 / deadzone=21,11 / fast_pskip=1 / chroma_qp_offset=-3 / threads=24 / lookahead_threads=6 / sliced_threads=0 / nr=0 / decimate=0 / interlaced=0 / bluray_compat=0 / constrained_intra=0 / bframes=16 / b_pyramid=2 / b_adapt=2 / b_bias=0 / direct=3 / weightb=1 / open_gop=0 / weightp=2 / keyint=192 / keyint_min=19 / scenecut=0 / intra_refresh=0 / rc_lookahead=80 / rc=crf / mbtree=1 / crf=15.0 / qcomp=0.60 / qpmin=0 / qpmax=69 / qpstep=4 / vbv_maxrate=20480 / vbv_bufsize=40960 / crf_max=0.0 / nal_hrd=none / filler=0 / ip_ratio=1.40 / aq=3:1.10
Default : Yes
Forced : No

Audio
ID : 2
Format : AAC LC
Format/Info : Advanced Audio Codec Low Complexity
Codec ID : A_AAC-2
Duration : 23 min 55 s
Bit rate : 256 kb/s
Channel(s) : 2 channels
Channel layout : L R
Sampling rate : 44.1 kHz
Frame rate : 43.066 FPS (1024 SPF)
Compression mode : Lossy
Delay relative to video : -83 ms
Stream size : 43.8 MiB (3%)
Default : Yes
Forced : No[/CODE]

Status: ddownload
3632F46A27.png
Rapidgator
E6F9E3BD5C.png

To view the content, you need to Sign In or Register.
 
Zuletzt bearbeitet: