Wir verwenden Cookies, um deinen Aufenthalt auf Animes.so möglichst angenehm gestalten zu können. Mehr erfahren

One Piece S01-S18 [Ger-Eng-Jap-Dub][Ger-Eng-Sub][720p|1080p][DVDRip|HDTV|WebRip] - diverse

Dieses Thema im Forum "Anime Serien (Deutsch)" wurde erstellt von Nanachi, 9. Nov. 2020.

  1. Nanachi
    Nanachi

    Uploader Otaku König

    Registriert seit:
    2. Okt. 2017
    Beiträge:
    248
    Zustimmungen:
    5.252

    One Piece
    ワンピース
    OneP, OP


    [​IMG]

    [​IMG]


    Kurzbeschreibung:


    Spieldauer: 24min
    Genre: Fighting-Shounen
    Nebengenres: Abendteuer, Action, Alltagsleben, Drama, Fantasy, Ganbatte, Komödie
    Jahr: 1999
    Sprache: Deutsch, Japanisch, Englisch (ab S13 GerDub only)
    Untertitel: Deutsch, Englisch (ab S13 GerDub only)
    Größe pro Folge: 272mb, 400mb, 582mb
    Episodenanzahl: 778/XXX
    Source: DVDRip, HDTV, WebRip
    Format: MP4
    Auflösung: 720p (4:3), 720p (16:9), 1080p (16:9)
    Videocodec: H264 (AVC)
    Audiocodec: AAC
    Releasegruppe: KUC_NG, MrBob, iND
    Hoster: [​IMG] DDownload, [​IMG] Uploaded


    Code:
    Format                                   : MPEG-4
    Format profile                           : Base Media
    Codec ID                                 : isom
    File size                                : 273 MiB
    Duration                                 : 21mn 6s
    Overall bit rate mode                    : Variable
    Overall bit rate                         : 1 806 Kbps
    Collection                               : One Piece
    Season                                   : 1
    Part                                     : 1
    Part/Position                            : 1
    Track name                               : Hier kommt Ruffy, der künftige König der Piraten!
    Track name/Position                      : 1
    Performer                                : One Piece
    Actor                                    : Mayumi Tanaka / Cho / Yamaguchi Yuriko / Nakai Kazuya / Yao Kazuki / Yamaguchi Kappei / Ootani Ikue / Hirata Hiroaki / Okamura Akemi / Ikeda Shuuichi / Furukawa Toshio / Hidekatsu Shibata / Kobayashi Yuuko / Yamazaki Wakana / Ikura Kazue / Toru Furuya / Takeuchi Junko / Yuka Shioyama / Osamu Ryutani / Yuuko Sumitomo / Yuji Ueda / Hiroyuki Kawamoto / Goro Naya / Rika Komatsu / Tomohisa Asou / Hiromi Nishikawa / Jin Domon / Yukari Hikida / Emi Uwagawa / Machiko Toyoshima / Jouji Yanami / Haruh Terada / Yukimasa Kishino / Chafurin / Taiten Kusunoki / Hiromi Tsuru / Rumi Kasahara / Hirohiko Kakegawa / Mami Kingetsu / Tomoko Naka / Yuusei Oda / Yasuhiko Kawazu / Takashi Nagasako / Toshihiko Seki / Kenji Hamada / Eiji Takemoto / Yasunori Masutani / Kouichi Nagano / Hidenobu Kiuchi / Kumiko Watanabe / Seiji Sasaki / Sara Nakayama / Kouji Yada / Haruna Ikezawa / Mariko Kouda / Hiroaki Miura / Michitaka Kobayashi / Banjou Ginga / Taiki Matsuno / Masakazu Morita / Shinobu Satouchi / Kenji Nojima / Takahiro Yoshimizu / Masaki Aizawa / Kumiko Nishihara / Chiwa Saito / Ryotaro Okiayu / Naomi Shindo / Oikawa Izo / Kishio Daisuke / Shimada Bin / Nakagawa Akiko / Orikasa Fumiko / Makiko Oomoto / Yasuhiro Takato / Suzuki Masami / Inada Tetsu / Endo Moriya / Soya Shigenori / Egawa Hisao / Tokuyama Yasuhiko / Takatsuka Masaya / Kouzou Shioya / Masaya Onosaka / Hidaka Noriko / Kosugi Jurota / Yoshida Hiroaki / Hiyama Nobuyuki / Takagi Wataru / Ikura Kazue / Urawa / Megumi / Hiroshi Kamiya / Noda Junko / Mahito Ohba / Matsuo Ginzou / Ootomo Ryuuzaburou / Sonobe Keiichi / Takkou Ishimori / Seki Tomokazu / Watanabe Misa / Ootsuka Akio / Unshou Ishizuka / Gouri Daisuke / Houki Katsuhisa / Namikawa Daisuke / Morikawa Toshiyuki / Iwata Mitsuo / Imamura Norio / Arimoto Kinryuu / Aono Takeshi / Tanaka Hideyuki / Mika Doi / Chiba Shigeru / Mitsuishi Kotono / Hori Hideyuki / Koyasu Takehito / Nakao Michio / Hashimoto Kouichi / Hiroshi Iwasaki / Kenichi Ono / Kihachiro Uemura / Masako Nozawa / Matsuoka Yoko / Naka Hiroshi / Noriko Yoshitake / Reiko Kiuchi / Rieko Takahashi / Shigeru Ushiyama / Tooru Oohira
    Genre                                    : Action & Adventure & Animation & Comedy
    ContentType                              : TV Show
    Description                              : Monkey D. Ruffy, merkt euch diesen Namen gut, denn er wird einmal König der Piraten sein. Das ist sein größter Traum und er versprach es einem alten Freund, dem roten Shanks. Seit Ruffy von einer Teufelsfrucht (Gum-Gum-Frucht) gegessen hat, kann er s
    Recorded date                            : 1999-10-20
    Encoded date                             : UTC 2015-04-27 22:08:32
    Tagged date                              : UTC 2015-04-27 22:08:41
    Writing application                      : MkvToMp4 [www.mkvtomp4.ru] version: 0.224 (x64)
    Cover                                    : Yes
    TVNetworkName                            : Fuji TV
    Title/Sort                               : One Piece
    LongDescription                          : Monkey D. Ruffy, merkt euch diesen Namen gut, denn er wird einmal König der Piraten sein. Das ist sein größter Traum und er versprach es einem alten Freund, dem roten Shanks. Seit Ruffy von einer Teufelsfrucht (Gum-Gum-Frucht) gegessen hat, kann er seine Gliedmaßen beliebig strecken und dehnen. So "ausgerüstet" mit einer Teufelsfrucht, macht er sich mit 17 Jahren auf den Weg um sein Schicksal einzufordern. /  / Da Ruffy nicht schwimmen kann (so wie alle die eine Teufelsfrucht verzehrt haben) und zu allem Überfluss noch sein Ruderboot gesunken ist, rettet Ruffy sich in ein Fass. Dieses wird von Matrosen eines Passagierschiffs an Bord gezogen. Doch bevor diese dazu kommen das Fass zu öffnen, wird das Schiff von Piraten gekapert. Käpt'n dieser Piratenbande ist Lady Alvida. Also reißen sich die Piraten das Fass unter den Nagel. Doch als die Piraten das Fass zerschlagen wollen, springt Ruffy aus dem Fass und schlägt dabei einen der Piraten KO. Damit macht er sich bei der Bande nicht sehr beliebt. Während die anderen Piraten die Verstärkung holen, lernt Ruffy Corby kennen, den Alvida vor 2 Jahren gefangen nahm und der nun für sie schuften muss. Doch Alvida unterbricht das Gespräch und es kommt zum Kampf zwischen ihr und Ruffy. Corby nutzt die Gelegenheit um all seinen Mut zusammen zu nehmen und Alvida die Meinung zu sagen! Doch das bringt Alvida zur Weißglut und sie bläst zum Angriff. Doch Ruffy verteidigt Corby und besiegt Alvida. Zusammen mit seinem neuen Freund Corby, verlassen beide das Passagierschiff, in einem Rettungsboot, da die Marine sie schon unter Beschuss genommen hat.
    Vendor                                   : Apple:vendor_id:1999-tt0388629
    ContentRating                            : us-tv|TV-PG|400|
    
    Video
    ID                                       : 1
    Format                                   : AVC
    Format/Info                              : Advanced Video Codec
    Format profile                           : High@L4.1
    Format settings, CABAC                   : Yes
    Format settings, ReFrames                : 12 frames
    Codec ID                                 : avc1
    Codec ID/Info                            : Advanced Video Coding
    Duration                                 : 21mn 6s
    Bit rate                                 : 1 319 Kbps
    Maximum bit rate                         : 6 543 Kbps
    Width                                    : 960 pixels
    Height                                   : 720 pixels
    Display aspect ratio                     : 4:3
    Frame rate mode                          : Constant
    Frame rate                               : 23.976 fps
    Color space                              : YUV
    Chroma subsampling                       : 4:2:0
    Bit depth                                : 8 bits
    Scan type                                : Progressive
    Bits/(Pixel*Frame)                       : 0.080
    Stream size                              : 199 MiB (73%)
    Writing library                          : x264 core 138 r2358 9e941d1
    Encoding settings                        : cabac=1 / ref=12 / deblock=1:1:1 / analyse=0x3:0x133 / me=umh / subme=9 / psy=1 / psy_rd=0.40:0.00 / mixed_ref=1 / me_range=16 / chroma_me=1 / trellis=2 / 8x8dct=1 / cqm=0 / deadzone=21,11 / fast_pskip=1 / chroma_qp_offset=-2 / threads=6 / lookahead_threads=1 / sliced_threads=0 / nr=0 / decimate=1 / interlaced=0 / bluray_compat=0 / constrained_intra=0 / bframes=5 / b_pyramid=2 / b_adapt=2 / b_bias=0 / direct=3 / weightb=1 / open_gop=0 / weightp=2 / keyint=240 / keyint_min=23 / scenecut=40 / intra_refresh=0 / rc_lookahead=40 / rc=crf / mbtree=1 / crf=19.3 / qcomp=0.60 / qpmin=10 / qpmax=51 / qpstep=4 / vbv_maxrate=24000 / vbv_bufsize=24000 / crf_max=0.0 / nal_hrd=none / ip_ratio=1.40 / aq=1:0.60
    Language                                 : English
    Encoded date                             : UTC 2015-04-27 22:08:32
    Tagged date                              : UTC 2015-04-27 22:08:37
    
    Audio #1
    ID                                       : 2
    Format                                   : AAC
    Format/Info                              : Advanced Audio Codec
    Format profile                           : LC
    Codec ID                                 : 40
    Duration                                 : 21mn 5s
    Bit rate mode                            : Variable
    Bit rate                                 : 160 Kbps
    Maximum bit rate                         : 162 Kbps
    Channel(s)                               : 2 channels
    Channel positions                        : Front: L R
    Sampling rate                            : 48.0 KHz
    Compression mode                         : Lossy
    Stream size                              : 24.1 MiB (9%)
    Language                                 : German
    Encoded date                             : UTC 2015-04-27 22:08:35
    Tagged date                              : UTC 2015-04-27 22:08:37
    
    Audio #2
    ID                                       : 3
    Format                                   : AAC
    Format/Info                              : Advanced Audio Codec
    Format profile                           : LC
    Codec ID                                 : 40
    Duration                                 : 21mn 5s
    Bit rate mode                            : Variable
    Bit rate                                 : 160 Kbps
    Maximum bit rate                         : 166 Kbps
    Channel(s)                               : 2 channels
    Channel positions                        : Front: L R
    Sampling rate                            : 48.0 KHz
    Compression mode                         : Lossy
    Stream size                              : 24.1 MiB (9%)
    Language                                 : Japanese
    Encoded date                             : UTC 2015-04-27 22:08:36
    Tagged date                              : UTC 2015-04-27 22:08:37
    
    Audio #3
    ID                                       : 4
    Format                                   : AAC
    Format/Info                              : Advanced Audio Codec
    Format profile                           : LC
    Codec ID                                 : 40
    Duration                                 : 21mn 5s
    Bit rate mode                            : Variable
    Bit rate                                 : 160 Kbps
    Maximum bit rate                         : 166 Kbps
    Channel(s)                               : 2 channels
    Channel positions                        : Front: L R
    Sampling rate                            : 48.0 KHz
    Compression mode                         : Lossy
    Stream size                              : 24.1 MiB (9%)
    Language                                 : English
    Encoded date                             : UTC 2015-04-27 22:08:36
    Tagged date                              : UTC 2015-04-27 22:08:37
    
    Text #1
    ID                                       : 5
    Format                                   : Timed Text
    Muxing mode                              : sbtl
    Codec ID                                 : tx3g
    Duration                                 : 20mn 46s
    Bit rate mode                            : Variable
    Bit rate                                 : 66 bps
    Stream size                              : 10.0 KiB (0%)
    Language                                 : German
    Encoded date                             : UTC 2015-04-27 22:08:37
    Tagged date                              : UTC 2015-04-27 22:08:37
    
    Text #2
    ID                                       : 6
    Format                                   : Timed Text
    Muxing mode                              : sbtl
    Codec ID                                 : tx3g
    Duration                                 : 20mn 46s
    Bit rate mode                            : Variable
    Bit rate                                 : 54 bps
    Stream size                              : 8.25 KiB (0%)
    Language                                 : English
    Encoded date                             : UTC 2015-04-27 22:08:37
    Tagged date                              : UTC 2015-04-27 22:08:37
    
    
    Code:
    Format                                   : MPEG-4
    Format profile                           : Base Media
    Codec ID                                 : isom
    File size                                : 401 MiB
    Duration                                 : 23mn 4s
    Overall bit rate mode                    : Variable
    Overall bit rate                         : 2 430 Kbps
    Encoded date                             : UTC 2010-02-08 17:31:59
    Tagged date                              : UTC 2010-02-08 17:31:59
    
    Video
    ID                                       : 1
    Format                                   : AVC
    Format/Info                              : Advanced Video Codec
    Format profile                           : High@L4.1
    Format settings, CABAC                   : Yes
    Format settings, ReFrames                : 3 frames
    Codec ID                                 : avc1
    Codec ID/Info                            : Advanced Video Coding
    Duration                                 : 23mn 4s
    Duration_FirstFrame                      : -21ms
    Bit rate                                 : 2 235 Kbps
    Maximum bit rate                         : 9 884 Kbps
    Width                                    : 1 280 pixels
    Height                                   : 720 pixels
    Display aspect ratio                     : 16:9
    Frame rate mode                          : Variable
    Frame rate                               : 23.976 fps
    Minimum frame rate                       : 23.976 fps
    Maximum frame rate                       : 31.968 fps
    Color space                              : YUV
    Chroma subsampling                       : 4:2:0
    Bit depth                                : 8 bits
    Scan type                                : Progressive
    Bits/(Pixel*Frame)                       : 0.101
    Stream size                              : 369 MiB (92%)
    Writing library                          : x264 core 57 svn-720M
    Encoding settings                        : cabac=1 / ref=2 / deblock=1:0:0 / analyse=0x3:0x113 / me=umh / subme=5 / brdo=0 / mixed_ref=0 / me_range=32 / chroma_me=1 / trellis=0 / 8x8dct=1 / cqm=0 / deadzone=21,11 / chroma_qp_offset=0 / threads=6 / nr=0 / decimate=1 / mbaff=0 / bframes=2 / b_pyramid=0 / b_adapt=1 / b_bias=0 / direct=1 / wpredb=1 / bime=0 / keyint=250 / keyint_min=25 / scenecut=40(pre) / rc=crf / crf=20.0 / rceq='blurCplx^(1-qComp)' / qcomp=0.60 / qpmin=10 / qpmax=51 / qpstep=4 / ip_ratio=1.40 / pb_ratio=1.30
    Encoded date                             : UTC 2008-12-20 01:38:26
    Tagged date                              : UTC 2010-02-08 17:32:24
    
    Audio
    ID                                       : 2
    Format                                   : AAC
    Format/Info                              : Advanced Audio Codec
    Format profile                           : LC
    Codec ID                                 : 40
    Duration                                 : 23mn 4s
    Bit rate mode                            : Variable
    Bit rate                                 : 192 Kbps
    Maximum bit rate                         : 201 Kbps
    Channel(s)                               : 2 channels
    Channel positions                        : Front: L R
    Sampling rate                            : 48.0 KHz
    Compression mode                         : Lossy
    Stream size                              : 31.7 MiB (8%)
    Title                                    : AAC audio
    Language                                 : German
    Encoded date                             : UTC 2010-02-08 17:29:30
    Tagged date                              : UTC 2010-02-08 17:32:24
    
    
    Code:
    Format                                   : MPEG-4
    Format profile                           : Base Media
    Codec ID                                 : isom
    File size                                : 583 MiB
    Duration                                 : 23mn 36s
    Overall bit rate mode                    : Variable
    Overall bit rate                         : 3 453 Kbps
    Encoded date                             : UTC 2018-04-23 22:03:44
    Tagged date                              : UTC 2018-04-23 22:03:52
    
    Video
    ID                                       : 1
    Format                                   : AVC
    Format/Info                              : Advanced Video Codec
    Format profile                           : High@L4
    Format settings, CABAC                   : Yes
    Format settings, ReFrames                : 4 frames
    Codec ID                                 : avc1
    Codec ID/Info                            : Advanced Video Coding
    Duration                                 : 23mn 36s
    Bit rate                                 : 3 072 Kbps
    Maximum bit rate                         : 7 994 Kbps
    Width                                    : 1 920 pixels
    Height                                   : 1 080 pixels
    Display aspect ratio                     : 16:9
    Frame rate mode                          : Constant
    Frame rate                               : 29.970 fps
    Color space                              : YUV
    Chroma subsampling                       : 4:2:0
    Bit depth                                : 8 bits
    Scan type                                : Progressive
    Bits/(Pixel*Frame)                       : 0.049
    Stream size                              : 516 MiB (89%)
    Writing library                          : x264 core 155 r2901 7d0ff22
    Encoding settings                        : cabac=1 / ref=4 / deblock=1:1:1 / analyse=0x3:0x133 / me=umh / subme=10 / psy=1 / psy_rd=0.40:0.00 / mixed_ref=1 / me_range=24 / chroma_me=1 / trellis=2 / 8x8dct=1 / cqm=0 / deadzone=21,11 / fast_pskip=1 / chroma_qp_offset=-2 / threads=12 / lookahead_threads=3 / sliced_threads=0 / nr=0 / decimate=1 / interlaced=0 / bluray_compat=0 / constrained_intra=0 / bframes=10 / b_pyramid=2 / b_adapt=2 / b_bias=0 / direct=3 / weightb=1 / open_gop=0 / weightp=2 / keyint=300 / keyint_min=29 / scenecut=40 / intra_refresh=0 / rc_lookahead=50 / rc=2pass / mbtree=1 / bitrate=3072 / ratetol=1.0 / qcomp=0.60 / qpmin=0 / qpmax=69 / qpstep=4 / cplxblur=20.0 / qblur=0.5 / vbv_maxrate=6144 / vbv_bufsize=15360 / nal_hrd=none / filler=0 / ip_ratio=1.40 / aq=1:0.60
    Language                                 : English
    Encoded date                             : UTC 2018-04-23 22:03:44
    Tagged date                              : UTC 2018-04-23 22:03:48
    
    Audio #1
    ID                                       : 2
    Format                                   : AAC
    Format/Info                              : Advanced Audio Codec
    Format profile                           : LC
    Codec ID                                 : 40
    Duration                                 : 23mn 36s
    Bit rate mode                            : Variable
    Bit rate                                 : 192 Kbps
    Maximum bit rate                         : 197 Kbps
    Channel(s)                               : 2 channels
    Channel positions                        : Front: L R
    Sampling rate                            : 48.0 KHz
    Compression mode                         : Lossy
    Stream size                              : 32.4 MiB (6%)
    Language                                 : German
    Encoded date                             : UTC 2018-04-23 22:03:47
    Tagged date                              : UTC 2018-04-23 22:03:48
    
    Audio #2
    ID                                       : 3
    Format                                   : AAC
    Format/Info                              : Advanced Audio Codec
    Format profile                           : LC
    Codec ID                                 : 40
    Duration                                 : 23mn 36s
    Bit rate mode                            : Variable
    Bit rate                                 : 192 Kbps
    Maximum bit rate                         : 196 Kbps
    Channel(s)                               : 2 channels
    Channel positions                        : Front: L R
    Sampling rate                            : 48.0 KHz
    Compression mode                         : Lossy
    Stream size                              : 32.4 MiB (6%)
    Language                                 : Japanese
    Encoded date                             : UTC 2018-04-23 22:03:47
    Tagged date                              : UTC 2018-04-23 22:03:48
    
    Menu
    ID                                       : 4
    Codec ID                                 : text
    Duration                                 : 23mn 36s
    Encoded date                             : UTC 2018-04-23 22:03:52
    Tagged date                              : UTC 2018-04-23 22:03:52
    00:00:00.000                             : Opening
    00:02:30.100                             : Review
    00:04:40.800                             : Episode 593 - Part 1/2
    00:15:47.600                             : Episode 593 - Part 2/2
    00:23:05.000                             : Preview
    Bit rate mode                            : VBR
    
    



    [​IMG]

    Status: [​IMG]
    Geschützter Bereich
    Registriere dich oder logge dich ein, um den Inhalt sehen zu können
     
    Zuletzt bearbeitet: 21. Nov. 2020

Diese Seite empfehlen