Welcome to our Community
Wanting to join the rest of our members? Feel free to sign up today.
Sign up

Planetarian: Storyteller of the Stars | Planetarian: Hoshi no Hito [Ger-Jap-Dub][Ger-Sub][720p][1080p][E-AC-3|DTS-HD][8bits|10bits][x264|x265][BluRay] - AO

Azugo

H͓̽u͓̽g͓̽o͓̽ ͓̽&͓̽ ͓̽A͓̽z͓̽u͓̽r͓̽a͓̽
Otaku Gott
Uploader
25 März 2020
3.567
35.356
118


Planetarian: Storyteller of the Stars | Planetarian: Hoshi no Hito



planetarian.jpg



oie_bchbujbgr3vm-png.30595
anisearch.com schrieb:
»Planetarian: Storyteller of the Stars«, basierend auf der gleichnamigen Visual Novel von Key, spielt in einer fernen Zukunft, geprägt durch Krieg, Verwüstung und Chaos. Durch den Einsatz von nuklearen Waffen hat sich das Klima gewandelt: Die Sonne hat aufgehört zu scheinen, graue Wolken liegen über dem ganzen Land und sogar die Sterne sind vom Himmel verschwunden – die Welt schein trostlos und trüb.

Eines Tages, bei einer seiner Erkundungen auf der Suche nach Schrott, entdeckt der junge Plünderer ein verlassenes Dachplanetarium. Darin stößt er auf Yumemi Hoshino, einen Serviceroboter, der noch immer treu auf die Rückkehr seiner Kunden wartet. Sie erklärt ihm, dass der Projektor eigentlich einen »Sternenhimmel« zeigen sollte, jedoch leider kaputt ist. Trotz anfänglicher Zweifel repariert der Plünderer den Projektor des Planetariums zusammen mit dem Robotermädchen – eine Entscheidung, die, wie sich herausstellt, nicht nur sein Schicksal verändern wird!
Quelle: https://www.anisearch.de/anime/11352



oie_bchbujbgr3vm1-png.30596


Spieldauer: ~117min
Genre: Sentimantales Drama
Nebengenres: Scifi
Jahr: 2016
Sprache:
Deutsch.png
Deutsch,
Japanisch.png
Japanisch
Untertitel:
Deutsch.png
Deutsch
Größe pro Folge: ~6320mb, ~1400mb ~16600mb, ~17400mb
Episodenanzahl: 01/01
Format: MKV
Auflösung: 720p (16:9), 1080p (16:9)
Videocodec: H264 (AVC). H265 (HEVC)
Audiocodec: E-AC-3, DTS-HD
Releasegruppe: Anime Otakus
Hoster:
rapidgator-gif.30742
Rapidgator,
ddownload-gif.30720
ddownload

Note: Die OVA findet ihr hier!


oie_bchbujbgr3vm2-png.30597

Rich (BBCode):
Format                                   : Matroska
Format version                           : Version 4
File size                                : 6.32 GiB
Duration                                 : 1 h 57 min
Overall bit rate                         : 7 727 kb/s
Encoded date                             : UTC 2022-03-18 10:40:14
Writing application                      : mkvmerge v66.0.0 ('Josie') 64-bit
Writing library                          : libebml v1.4.2 + libmatroska v1.6.4
Release by                               : Anime Otakus
Version                                  : 1.2

Video
ID                                       : 1
Format                                   : AVC
Format/Info                              : Advanced Video Codec
Format profile                           : [email protected]
Format settings                          : CABAC / 8 Ref Frames
Format settings, CABAC                   : Yes
Format settings, Reference frames        : 8 frames
Codec ID                                 : V_MPEG4/ISO/AVC
Duration                                 : 1 h 57 min
Bit rate                                 : 6 428 kb/s
Width                                    : 1 280 pixels
Height                                   : 720 pixels
Display aspect ratio                     : 16:9
Frame rate mode                          : Constant
Frame rate                               : 23.976 (24000/1001) FPS
Color space                              : YUV
Chroma subsampling                       : 4:2:0
Bit depth                                : 8 bits
Scan type                                : Progressive
Bits/(Pixel*Frame)                       : 0.291
Stream size                              : 5.26 GiB (83%)
Language                                 : English
Default                                  : No
Forced                                   : No
Color range                              : Limited
Color primaries                          : BT.709
Transfer characteristics                 : BT.709
Matrix coefficients                      : BT.709

Audio #1
ID                                       : 4
Format                                   : E-AC-3
Format/Info                              : Enhanced AC-3
Commercial name                          : Dolby Digital Plus
Codec ID                                 : A_EAC3
Duration                                 : 1 h 57 min
Bit rate mode                            : Constant
Bit rate                                 : 640 kb/s
Channel(s)                               : 6 channels
Channel layout                           : L R C LFE Ls Rs
Sampling rate                            : 48.0 kHz
Frame rate                               : 31.250 FPS (1536 SPF)
Bit depth                                : 32 bits
Compression mode                         : Lossy
Delay relative to video                  : -5 ms
Stream size                              : 536 MiB (8%)
Title                                    : Surround 5.1
Language                                 : German
Service kind                             : Complete Main
Default                                  : Yes
Forced                                   : No

Audio #2
ID                                       : 5
Format                                   : E-AC-3
Format/Info                              : Enhanced AC-3
Commercial name                          : Dolby Digital Plus
Codec ID                                 : A_EAC3
Duration                                 : 1 h 57 min
Bit rate mode                            : Constant
Bit rate                                 : 640 kb/s
Channel(s)                               : 6 channels
Channel layout                           : L R C LFE Ls Rs
Sampling rate                            : 48.0 kHz
Frame rate                               : 31.250 FPS (1536 SPF)
Bit depth                                : 32 bits
Compression mode                         : Lossy
Delay relative to video                  : -5 ms
Stream size                              : 536 MiB (8%)
Title                                    : Surround 5.1
Language                                 : Japanese
Service kind                             : Complete Main
Default                                  : No
Forced                                   : No

Text #1
ID                                       : 2
Format                                   : PGS
Muxing mode                              : zlib
Codec ID                                 : S_HDMV/PGS
Codec ID/Info                            : Picture based subtitle format used on BDs/HD-DVDs
Duration                                 : 1 h 50 min
Bit rate                                 : 1 173 b/s
Count of elements                        : 110
Stream size                              : 948 KiB (0%)
Title                                    : German Forced
Language                                 : German
Default                                  : Yes
Forced                                   : No

Text #2
ID                                       : 3
Format                                   : PGS
Muxing mode                              : zlib
Codec ID                                 : S_HDMV/PGS
Codec ID/Info                            : Picture based subtitle format used on BDs/HD-DVDs
Duration                                 : 1 h 56 min
Bit rate                                 : 40.0 kb/s
Count of elements                        : 4060
Stream size                              : 33.4 MiB (0%)
Title                                    : German Full
Language                                 : German
Default                                  : No
Forced                                   : No

Menu
00:00:00.000                             : :Chapter 01
00:05:52.935                             : :Chapter 02
00:17:29.965                             : :Chapter 03
00:25:28.193                             : :Chapter 04
00:36:05.413                             : :Chapter 05
00:46:15.773                             : :Chapter 06
00:54:27.514                             : :Chapter 07
01:03:15.625                             : :Chapter 08
01:11:02.091                             : :Chapter 09
01:25:15.485                             : :Chapter 10
01:31:01.038                             : :Chapter 11
01:39:26.919                             : :Chapter 12
01:50:25.118                             : :Chapter 13
Rich (BBCode):
Format                                   : Matroska
Format version                           : Version 4
File size                                : 14.0 GiB
Duration                                 : 1 h 57 min
Overall bit rate                         : 17.1 Mb/s
Encoded date                             : UTC 2022-03-19 10:39:33
Writing application                      : mkvmerge v65.0.0 ('Too Much') 64-bit
Writing library                          : libebml v1.4.2 + libmatroska v1.6.4
Release by                               : Anime Otakus
Version                                  : 1.2

Video
ID                                       : 1
Format                                   : AVC
Format/Info                              : Advanced Video Codec
Format profile                           : [email protected]
Format settings                          : CABAC / 12 Ref Frames
Format settings, CABAC                   : Yes
Format settings, Reference frames        : 12 frames
Codec ID                                 : V_MPEG4/ISO/AVC
Duration                                 : 1 h 57 min
Bit rate                                 : 16.4 Mb/s
Width                                    : 1 920 pixels
Height                                   : 1 080 pixels
Display aspect ratio                     : 16:9
Frame rate mode                          : Constant
Frame rate                               : 23.976 (24000/1001) FPS
Color space                              : YUV
Chroma subsampling                       : 4:2:0
Bit depth                                : 8 bits
Scan type                                : Progressive
Bits/(Pixel*Frame)                       : 0.330
Stream size                              : 13.4 GiB (96%)
Language                                 : English
Default                                  : No
Forced                                   : No
Color range                              : Limited
Color primaries                          : BT.709
Transfer characteristics                 : BT.709
Matrix coefficients                      : BT.709

Audio
ID                                       : 4
Format                                   : E-AC-3
Format/Info                              : Enhanced AC-3
Commercial name                          : Dolby Digital Plus
Codec ID                                 : A_EAC3
Duration                                 : 1 h 57 min
Bit rate mode                            : Constant
Bit rate                                 : 640 kb/s
Channel(s)                               : 6 channels
Channel layout                           : L R C LFE Ls Rs
Sampling rate                            : 48.0 kHz
Frame rate                               : 31.250 FPS (1536 SPF)
Bit depth                                : 32 bits
Compression mode                         : Lossy
Delay relative to video                  : -5 ms
Stream size                              : 536 MiB (4%)
Title                                    : Surround 5.1
Language                                 : German
Service kind                             : Complete Main
Default                                  : Yes
Forced                                   : No

Text #1
ID                                       : 2
Format                                   : PGS
Muxing mode                              : zlib
Codec ID                                 : S_HDMV/PGS
Codec ID/Info                            : Picture based subtitle format used on BDs/HD-DVDs
Duration                                 : 1 h 50 min
Bit rate                                 : 1 173 b/s
Count of elements                        : 110
Stream size                              : 948 KiB (0%)
Title                                    : German Forced
Language                                 : German
Default                                  : Yes
Forced                                   : No

Text #2
ID                                       : 3
Format                                   : PGS
Muxing mode                              : zlib
Codec ID                                 : S_HDMV/PGS
Codec ID/Info                            : Picture based subtitle format used on BDs/HD-DVDs
Duration                                 : 1 h 56 min
Bit rate                                 : 40.0 kb/s
Count of elements                        : 4060
Stream size                              : 33.4 MiB (0%)
Title                                    : German Full
Language                                 : German
Default                                  : No
Forced                                   : No

Menu
00:00:00.000                             : :Chapter 01
00:05:52.935                             : :Chapter 02
00:17:29.965                             : :Chapter 03
00:25:28.193                             : :Chapter 04
00:36:05.413                             : :Chapter 05
00:46:15.773                             : :Chapter 06
00:54:27.514                             : :Chapter 07
01:03:15.625                             : :Chapter 08
01:11:02.091                             : :Chapter 09
01:25:15.485                             : :Chapter 10
01:31:01.038                             : :Chapter 11
01:39:26.919                             : :Chapter 12
01:50:25.118                             : :Chapter 13

Rich (BBCode):
Format                                   : Matroska
Format version                           : Version 4
File size                                : 16.6 GiB
Duration                                 : 1 h 57 min
Overall bit rate mode                    : Variable
Overall bit rate                         : 20.3 Mb/s
Encoded date                             : UTC 2022-03-18 06:18:34
Writing application                      : mkvmerge v66.0.0 ('Josie') 64-bit
Writing library                          : libebml v1.4.2 + libmatroska v1.6.4
Release by                               : Anime Otakus
Version                                  : 1.2

Video
ID                                       : 1
Format                                   : AVC
Format/Info                              : Advanced Video Codec
Format profile                           : [email protected]
Format settings                          : CABAC / 12 Ref Frames
Format settings, CABAC                   : Yes
Format settings, Reference frames        : 12 frames
Codec ID                                 : V_MPEG4/ISO/AVC
Duration                                 : 1 h 57 min
Bit rate                                 : 16.4 Mb/s
Width                                    : 1 920 pixels
Height                                   : 1 080 pixels
Display aspect ratio                     : 16:9
Frame rate mode                          : Constant
Frame rate                               : 23.976 (24000/1001) FPS
Color space                              : YUV
Chroma subsampling                       : 4:2:0
Bit depth                                : 8 bits
Scan type                                : Progressive
Bits/(Pixel*Frame)                       : 0.330
Stream size                              : 13.4 GiB (81%)
Language                                 : English
Default                                  : No
Forced                                   : No
Color range                              : Limited
Color primaries                          : BT.709
Transfer characteristics                 : BT.709
Matrix coefficients                      : BT.709

Audio #1
ID                                       : 4
Format                                   : DTS XLL
Format/Info                              : Digital Theater Systems
Commercial name                          : DTS-HD Master Audio
Codec ID                                 : A_DTS
Duration                                 : 1 h 57 min
Bit rate mode                            : Variable
Bit rate                                 : 1 979 kb/s
Channel(s)                               : 6 channels
Channel layout                           : C L R Ls Rs LFE
Sampling rate                            : 48.0 kHz
Frame rate                               : 93.750 FPS (512 SPF)
Bit depth                                : 16 bits
Compression mode                         : Lossless
Stream size                              : 1.62 GiB (10%)
Title                                    : Surround 5.1
Language                                 : German
Default                                  : Yes
Forced                                   : No

Audio #2
ID                                       : 5
Format                                   : DTS XLL
Format/Info                              : Digital Theater Systems
Commercial name                          : DTS-HD Master Audio
Codec ID                                 : A_DTS
Duration                                 : 1 h 57 min
Bit rate mode                            : Variable
Bit rate                                 : 1 912 kb/s
Channel(s)                               : 6 channels
Channel layout                           : C L R Ls Rs LFE
Sampling rate                            : 48.0 kHz
Frame rate                               : 93.750 FPS (512 SPF)
Bit depth                                : 16 bits
Compression mode                         : Lossless
Stream size                              : 1.56 GiB (9%)
Title                                    : Surround 5.1
Language                                 : Japanese
Default                                  : No
Forced                                   : No

Text #1
ID                                       : 2
Format                                   : PGS
Muxing mode                              : zlib
Codec ID                                 : S_HDMV/PGS
Codec ID/Info                            : Picture based subtitle format used on BDs/HD-DVDs
Duration                                 : 1 h 50 min
Bit rate                                 : 1 173 b/s
Count of elements                        : 110
Stream size                              : 948 KiB (0%)
Title                                    : German Forced
Language                                 : German
Default                                  : Yes
Forced                                   : No

Text #2
ID                                       : 3
Format                                   : PGS
Muxing mode                              : zlib
Codec ID                                 : S_HDMV/PGS
Codec ID/Info                            : Picture based subtitle format used on BDs/HD-DVDs
Duration                                 : 1 h 56 min
Bit rate                                 : 40.0 kb/s
Count of elements                        : 4060
Stream size                              : 33.4 MiB (0%)
Title                                    : German Full
Language                                 : German
Default                                  : No
Forced                                   : No

Menu
00:00:00.000                             : :Chapter 01
00:05:52.935                             : :Chapter 02
00:17:29.965                             : :Chapter 03
00:25:28.193                             : :Chapter 04
00:36:05.413                             : :Chapter 05
00:46:15.773                             : :Chapter 06
00:54:27.514                             : :Chapter 07
01:03:15.625                             : :Chapter 08
01:11:02.091                             : :Chapter 09
01:25:15.485                             : :Chapter 10
01:31:01.038                             : :Chapter 11
01:39:26.919                             : :Chapter 12
01:50:25.118                             : :Chapter 13

Rich (BBCode):
Format                                   : Matroska
Format version                           : Version 4
File size                                : 17.4 GiB
Duration                                 : 1 h 57 min
Overall bit rate mode                    : Variable
Overall bit rate                         : 21.3 Mb/s
Encoded date                             : UTC 2022-03-19 11:40:37
Writing application                      : mkvmerge v66.0.0 ('Josie') 64-bit
Writing library                          : libebml v1.4.2 + libmatroska v1.6.4
Release by                               : Anime Otakus
Version                                  : 1.2

Video
ID                                       : 1
Format                                   : HEVC
Format/Info                              : High Efficiency Video Coding
Format profile                           : Main [email protected]@Main
Codec ID                                 : V_MPEGH/ISO/HEVC
Duration                                 : 1 h 57 min
Bit rate                                 : 17.3 Mb/s
Width                                    : 1 920 pixels
Height                                   : 1 080 pixels
Display aspect ratio                     : 16:9
Frame rate mode                          : Constant
Frame rate                               : 23.976 (24000/1001) FPS
Color space                              : YUV
Chroma subsampling                       : 4:2:0 (Type 0)
Bit depth                                : 10 bits
Bits/(Pixel*Frame)                       : 0.349
Stream size                              : 14.2 GiB (82%)
Language                                 : English
Default                                  : No
Forced                                   : No
Color range                              : Limited
Color primaries                          : BT.709
Transfer characteristics                 : BT.709
Matrix coefficients                      : BT.709

Audio #1
ID                                       : 4
Format                                   : DTS XLL
Format/Info                              : Digital Theater Systems
Commercial name                          : DTS-HD Master Audio
Codec ID                                 : A_DTS
Duration                                 : 1 h 57 min
Bit rate mode                            : Variable
Bit rate                                 : 1 979 kb/s
Channel(s)                               : 6 channels
Channel layout                           : C L R Ls Rs LFE
Sampling rate                            : 48.0 kHz
Frame rate                               : 93.750 FPS (512 SPF)
Bit depth                                : 16 bits
Compression mode                         : Lossless
Stream size                              : 1.62 GiB (9%)
Title                                    : Surround 5.1
Language                                 : German
Default                                  : Yes
Forced                                   : No

Audio #2
ID                                       : 5
Format                                   : DTS XLL
Format/Info                              : Digital Theater Systems
Commercial name                          : DTS-HD Master Audio
Codec ID                                 : A_DTS
Duration                                 : 1 h 57 min
Bit rate mode                            : Variable
Bit rate                                 : 1 912 kb/s
Channel(s)                               : 6 channels
Channel layout                           : C L R Ls Rs LFE
Sampling rate                            : 48.0 kHz
Frame rate                               : 93.750 FPS (512 SPF)
Bit depth                                : 16 bits
Compression mode                         : Lossless
Stream size                              : 1.56 GiB (9%)
Title                                    : Surround 5.1
Language                                 : Japanese
Default                                  : No
Forced                                   : No

Text #1
ID                                       : 2
Format                                   : PGS
Muxing mode                              : zlib
Codec ID                                 : S_HDMV/PGS
Codec ID/Info                            : Picture based subtitle format used on BDs/HD-DVDs
Duration                                 : 1 h 50 min
Bit rate                                 : 1 173 b/s
Count of elements                        : 110
Stream size                              : 948 KiB (0%)
Title                                    : German Forced
Language                                 : German
Default                                  : Yes
Forced                                   : No

Text #2
ID                                       : 3
Format                                   : PGS
Muxing mode                              : zlib
Codec ID                                 : S_HDMV/PGS
Codec ID/Info                            : Picture based subtitle format used on BDs/HD-DVDs
Duration                                 : 1 h 56 min
Bit rate                                 : 40.0 kb/s
Count of elements                        : 4060
Stream size                              : 33.4 MiB (0%)
Title                                    : German Full
Language                                 : German
Default                                  : No
Forced                                   : No

Menu
00:00:00.000                             : :Chapter 01
00:05:52.935                             : :Chapter 02
00:17:29.965                             : :Chapter 03
00:25:28.193                             : :Chapter 04
00:36:05.413                             : :Chapter 05
00:46:15.773                             : :Chapter 06
00:54:27.514                             : :Chapter 07
01:03:15.625                             : :Chapter 08
01:11:02.091                             : :Chapter 09
01:25:15.485                             : :Chapter 10
01:31:01.038                             : :Chapter 11
01:39:26.919                             : :Chapter 12
01:50:25.118                             : :Chapter 13





oie_bchbujbgr3vm3-png.30598

cooltext396117611400625-png.30739

720p EAC3
DA437C6286.png

1080p EAC3
67D6BAB3BA.png

1080p DTS-HD
E45B005E39.png

x265 1080p DTS-HD
31539C4E21.png


cooltext3961176114006251-png.30741

720p EAC3
0DFFF9AB5D.png

1080p EAC3
3BCB619E33.png

1080p DTS-HD
45B9130514.png

x265 1080p DTS-HD
31539C4E21.png



To view the content, you need to Sign In or Register.

 
Zuletzt bearbeitet: