Wir verwenden Cookies, um deinen Aufenthalt auf Animes.so möglichst angenehm gestalten zu können. Mehr erfahren

Pokemon Film 21 | Pokémon Der Film - Die Macht in uns [Ger-Jap-Dub][Ger-Sub][AC-3|DTS-HD][404p|720p|1080p][BluRay] - AST4u

Dieses Thema im Forum "Download Archiv" wurde erstellt von Ta@, 30. März 2019.

  1. Ta@

    Ta@ Erfahrener Otaku Otaku König

    Registriert seit:
    7. Juli 2016
    Beiträge:
    219
    Zustimmungen:
    18.439
    Gekijouban Pocket Monsters: Minna no Monogatari
    Pokémon: Der Film - Die Macht in uns
    Pokémon Movie 21, Pokémon the Movie: Everyone’s Story

    [​IMG]
    [​IMG]

    Einmal pro Jahr findet das Wind-Festival in Fula City statt, wo die Menschen gemeinsam mit dem Wind leben. Sie halten noch immer am dem uralten Glauben fest, dass das Legendäre Pokémon Lugia am letzten Festivaltag den heiligen Wind bringen wird. Als jedoch eine Reihe von Vorfällen nicht nur das Festival bedroht, sondern auch alle Menschen und Pokémon in Fula City in Gefahr bringt, können Ash und Pikachu die Situation allein nicht retten. Werden alle trotz ihrer Unterschiede zusammenfinden, um ihren Ort zu retten? Oder wird alles zerstört werden?

    Folgen: 1/1
    Größe pro Folge: ~1341 MB/~2643 MB/~5471 MB/~7641 MB
    Folgendauer: ~100 Min
    Releaser: AST4u
    Art: Lizenzrelease
    Sprache: Japanisch, Deutsch
    Untertitel: Deutsch
    Jahr: 2018
    Genres: Abenteuer, Fantasy
    Auflösung: 720x404/1280x720/1920x1080
    Format: MKV
    Quelle: BluRay
    Videocodec: x264
    Farbtiefe: 8Bit
    Audiocodec: AC3/DTS
    Publisher: polyband Medien GmbH
    Hoster: Share-Online

    [​IMG]
    Code:
    General Complete name : Pokemon.Die.Macht.in.uns.Movie.21.German.AC3.DL.BDRip.x264-AST4u.mkv Format : Matroska Format version : Version 4 File size : 1.31 GiB Duration : 1 h 37 min Overall bit rate : 1 924 kb/s Encoded date : UTC 2019-03-29 07:25:52 Writing application : mkvmerge v15.0.0 ('Duel with the Devil') 64-bit Writing library : libebml v1.3.5 + libmatroska v1.4.5 Video ID : 1 Format : AVC Format/Info : Advanced Video Codec Format profile : High@L4.1 Format settings : CABAC / 4 Ref Frames Format settings, CABAC : Yes Format settings, RefFrames : 4 frames Codec ID : V_MPEG4/ISO/AVC Duration : 1 h 37 min Bit rate : 1 154 kb/s Width : 720 pixels Height : 404 pixels Display aspect ratio : 16:9 Frame rate mode : Constant Frame rate : 23.976 (24000/1001) FPS Color space : YUV Chroma subsampling : 4:2:0 Bit depth : 8 bits Scan type : Progressive Bits/(Pixel*Frame) : 0.166 Stream size : 805 MiB (60%) Writing library : x264 core 152 r2851 ba24899 Encoding settings : cabac=1 / ref=3 / deblock=1:1:1 / analyse=0x3:0x133 / me=umh / subme=9 / psy=1 / psy_rd=1.00:0.00 / mixed_ref=1 / me_range=32 / chroma_me=1 / trellis=2 / 8x8dct=1 / cqm=0 / deadzone=21,11 / fast_pskip=1 / chroma_qp_offset=-2 / threads=13 / lookahead_threads=1 / sliced_threads=0 / nr=0 / decimate=1 / interlaced=0 / bluray_compat=0 / constrained_intra=0 / bframes=3 / b_pyramid=2 / b_adapt=2 / b_bias=0 / direct=3 / weightb=1 / open_gop=0 / weightp=2 / keyint=250 / keyint_min=25 / scenecut=40 / intra_refresh=0 / rc_lookahead=48 / rc=crf / mbtree=1 / crf=16.0 / qcomp=0.60 / qpmin=0 / qpmax=69 / qpstep=4 / ip_ratio=1.40 / aq=3:1.00 Default : Yes Forced : No Color range : Limited Matrix coefficients : BT.709 Audio #1 ID : 2 Format : AC-3 Format/Info : Audio Coding 3 Commercial name : Dolby Digital Codec ID : A_AC3 Duration : 1 h 37 min Bit rate mode : Constant Bit rate : 384 kb/s Channel(s) : 2 channels Channel layout : L R Sampling rate : 48.0 kHz Frame rate : 31.250 FPS (1536 SPF) Bit depth : 16 bits Compression mode : Lossy Stream size : 268 MiB (20%) Language : German Service kind : Complete Main Default : Yes Forced : No Audio #2 ID : 3 Format : AC-3 Format/Info : Audio Coding 3 Commercial name : Dolby Digital Codec ID : A_AC3 Duration : 1 h 37 min Bit rate mode : Constant Bit rate : 384 kb/s Channel(s) : 2 channels Channel layout : L R Sampling rate : 48.0 kHz Frame rate : 31.250 FPS (1536 SPF) Bit depth : 16 bits Compression mode : Lossy Stream size : 268 MiB (20%) Language : English Service kind : Complete Main Default : No Forced : No Menu 00:00:00.000 : en:00:00:00.000 00:02:52.339 : en:00:02:52.339 00:11:37.572 : en:00:11:37.572 00:17:25.169 : en:00:17:25.169 00:28:01.763 : en:00:28:01.763 00:35:40.972 : en:00:35:40.972 00:43:01.078 : en:00:43:01.078 00:51:40.180 : en:00:51:40.180 00:58:42.018 : en:00:58:42.018 01:09:10.063 : en:01:09:10.063 01:20:23.736 : en:01:20:23.736 01:32:13.361 : en:01:32:13.361 ​
    Code:
    General Complete name : Pokemon.Die.Macht.in.uns.Movie.21.German.AC3.DL.720p.BluRay.x264-AST4u.mkv Format : Matroska Format version : Version 4 File size : 2.58 GiB Duration : 1 h 37 min Overall bit rate : 3 791 kb/s Encoded date : UTC 2019-03-29 06:24:26 Writing application : mkvmerge v15.0.0 ('Duel with the Devil') 64-bit Writing library : libebml v1.3.5 + libmatroska v1.4.5 Video ID : 1 Format : AVC Format/Info : Advanced Video Codec Format profile : High@L4.1 Format settings : CABAC / 4 Ref Frames Format settings, CABAC : Yes Format settings, RefFrames : 4 frames Codec ID : V_MPEG4/ISO/AVC Duration : 1 h 37 min Bit rate : 2 893 kb/s Width : 1 280 pixels Height : 720 pixels Display aspect ratio : 16:9 Frame rate mode : Constant Frame rate : 23.976 (24000/1001) FPS Color space : YUV Chroma subsampling : 4:2:0 Bit depth : 8 bits Scan type : Progressive Bits/(Pixel*Frame) : 0.131 Stream size : 1.97 GiB (76%) Writing library : x264 core 152 r2851 ba24899 Encoding settings : cabac=1 / ref=3 / deblock=1:1:1 / analyse=0x3:0x133 / me=umh / subme=9 / psy=1 / psy_rd=1.00:0.00 / mixed_ref=1 / me_range=32 / chroma_me=1 / trellis=2 / 8x8dct=1 / cqm=0 / deadzone=21,11 / fast_pskip=1 / chroma_qp_offset=-2 / threads=22 / lookahead_threads=1 / sliced_threads=0 / nr=0 / decimate=1 / interlaced=0 / bluray_compat=0 / constrained_intra=0 / bframes=3 / b_pyramid=2 / b_adapt=2 / b_bias=0 / direct=3 / weightb=1 / open_gop=0 / weightp=2 / keyint=250 / keyint_min=25 / scenecut=40 / intra_refresh=0 / rc_lookahead=48 / rc=crf / mbtree=1 / crf=16.0 / qcomp=0.60 / qpmin=0 / qpmax=69 / qpstep=4 / ip_ratio=1.40 / aq=3:1.00 Default : Yes Forced : No Color range : Limited Matrix coefficients : BT.709 Audio #1 ID : 2 Format : AC-3 Format/Info : Audio Coding 3 Commercial name : Dolby Digital Codec ID : A_AC3 Duration : 1 h 37 min Bit rate mode : Constant Bit rate : 448 kb/s Channel(s) : 6 channels Channel layout : L R C LFE Ls Rs Sampling rate : 48.0 kHz Frame rate : 31.250 FPS (1536 SPF) Bit depth : 16 bits Compression mode : Lossy Stream size : 312 MiB (12%) Language : German Service kind : Complete Main Default : Yes Forced : No Audio #2 ID : 3 Format : AC-3 Format/Info : Audio Coding 3 Commercial name : Dolby Digital Codec ID : A_AC3 Duration : 1 h 37 min Bit rate mode : Constant Bit rate : 448 kb/s Channel(s) : 6 channels Channel layout : L R C LFE Ls Rs Sampling rate : 48.0 kHz Frame rate : 31.250 FPS (1536 SPF) Bit depth : 16 bits Compression mode : Lossy Stream size : 312 MiB (12%) Language : English Service kind : Complete Main Default : No Forced : No Menu 00:00:00.000 : en:00:00:00.000 00:02:52.339 : en:00:02:52.339 00:11:37.572 : en:00:11:37.572 00:17:25.169 : en:00:17:25.169 00:28:01.763 : en:00:28:01.763 00:35:40.972 : en:00:35:40.972 00:43:01.078 : en:00:43:01.078 00:51:40.180 : en:00:51:40.180 00:58:42.018 : en:00:58:42.018 01:09:10.063 : en:01:09:10.063 01:20:23.736 : en:01:20:23.736 01:32:13.361 : en:01:32:13.361 ​
    Code:
    General Complete name : Pokemon.Die.Macht.in.uns.Movie.21.German.AC3.DL.1080p.BluRay.x264-AST4u.mkv Format : Matroska Format version : Version 4 File size : 5.34 GiB Duration : 1 h 37 min Overall bit rate : 7 847 kb/s Encoded date : UTC 2019-03-29 03:54:42 Writing application : mkvmerge v15.0.0 ('Duel with the Devil') 64-bit Writing library : libebml v1.3.5 + libmatroska v1.4.5 Video ID : 1 Format : AVC Format/Info : Advanced Video Codec Format profile : High@L4.1 Format settings : CABAC / 4 Ref Frames Format settings, CABAC : Yes Format settings, RefFrames : 4 frames Codec ID : V_MPEG4/ISO/AVC Duration : 1 h 37 min Bit rate : 6 948 kb/s Width : 1 920 pixels Height : 1 080 pixels Display aspect ratio : 16:9 Frame rate mode : Constant Frame rate : 23.976 (24000/1001) FPS Color space : YUV Chroma subsampling : 4:2:0 Bit depth : 8 bits Scan type : Progressive Bits/(Pixel*Frame) : 0.140 Stream size : 4.73 GiB (89%) Writing library : x264 core 152 r2851 ba24899 Encoding settings : cabac=1 / ref=3 / deblock=1:1:1 / analyse=0x3:0x133 / me=umh / subme=9 / psy=1 / psy_rd=1.00:0.00 / mixed_ref=1 / me_range=32 / chroma_me=1 / trellis=2 / 8x8dct=1 / cqm=0 / deadzone=21,11 / fast_pskip=1 / chroma_qp_offset=-2 / threads=24 / lookahead_threads=2 / sliced_threads=0 / nr=0 / decimate=1 / interlaced=0 / bluray_compat=0 / constrained_intra=0 / bframes=3 / b_pyramid=2 / b_adapt=2 / b_bias=0 / direct=3 / weightb=1 / open_gop=0 / weightp=2 / keyint=250 / keyint_min=25 / scenecut=40 / intra_refresh=0 / rc_lookahead=48 / rc=crf / mbtree=1 / crf=16.0 / qcomp=0.60 / qpmin=0 / qpmax=69 / qpstep=4 / ip_ratio=1.40 / aq=3:1.00 Default : Yes Forced : No Color range : Limited Matrix coefficients : BT.709 Audio #1 ID : 2 Format : AC-3 Format/Info : Audio Coding 3 Commercial name : Dolby Digital Codec ID : A_AC3 Duration : 1 h 37 min Bit rate mode : Constant Bit rate : 448 kb/s Channel(s) : 6 channels Channel layout : L R C LFE Ls Rs Sampling rate : 48.0 kHz Frame rate : 31.250 FPS (1536 SPF) Bit depth : 16 bits Compression mode : Lossy Stream size : 312 MiB (6%) Language : German Service kind : Complete Main Default : Yes Forced : No Audio #2 ID : 3 Format : AC-3 Format/Info : Audio Coding 3 Commercial name : Dolby Digital Codec ID : A_AC3 Duration : 1 h 37 min Bit rate mode : Constant Bit rate : 448 kb/s Channel(s) : 6 channels Channel layout : L R C LFE Ls Rs Sampling rate : 48.0 kHz Frame rate : 31.250 FPS (1536 SPF) Bit depth : 16 bits Compression mode : Lossy Stream size : 312 MiB (6%) Language : English Service kind : Complete Main Default : No Forced : No Menu 00:00:00.000 : en:00:00:00.000 00:02:52.339 : en:00:02:52.339 00:11:37.572 : en:00:11:37.572 00:17:25.169 : en:00:17:25.169 00:28:01.763 : en:00:28:01.763 00:35:40.972 : en:00:35:40.972 00:43:01.078 : en:00:43:01.078 00:51:40.180 : en:00:51:40.180 00:58:42.018 : en:00:58:42.018 01:09:10.063 : en:01:09:10.063 01:20:23.736 : en:01:20:23.736 01:32:13.361 : en:01:32:13.361 ​
    Code:
    General Complete name : Pokemon.Die.Macht.in.uns.Movie.21.German.DTS.5.1.DL.1080p.BluRay.x264-AST4u.mkv Format : Matroska Format version : Version 4 File size : 7.46 GiB Duration : 1 h 37 min Overall bit rate mode : Variable Overall bit rate : 11.0 Mb/s Encoded date : UTC 2019-03-29 18:29:03 Writing application : mkvmerge v32.0.0 ('Astral Progressions') 64-bit Writing library : libebml v1.3.7 + libmatroska v1.5.0 Video ID : 1 Format : AVC Format/Info : Advanced Video Codec Format profile : High@L4.1 Format settings : CABAC / 4 Ref Frames Format settings, CABAC : Yes Format settings, RefFrames : 4 frames Codec ID : V_MPEG4/ISO/AVC Duration : 1 h 37 min Bit rate : 6 948 kb/s Width : 1 920 pixels Height : 1 080 pixels Display aspect ratio : 16:9 Frame rate mode : Constant Frame rate : 23.976 (24000/1001) FPS Color space : YUV Chroma subsampling : 4:2:0 Bit depth : 8 bits Scan type : Progressive Bits/(Pixel*Frame) : 0.140 Stream size : 4.73 GiB (63%) Writing library : x264 core 152 r2851 ba24899 Encoding settings : cabac=1 / ref=3 / deblock=1:1:1 / analyse=0x3:0x133 / me=umh / subme=9 / psy=1 / psy_rd=1.00:0.00 / mixed_ref=1 / me_range=32 / chroma_me=1 / trellis=2 / 8x8dct=1 / cqm=0 / deadzone=21,11 / fast_pskip=1 / chroma_qp_offset=-2 / threads=24 / lookahead_threads=2 / sliced_threads=0 / nr=0 / decimate=1 / interlaced=0 / bluray_compat=0 / constrained_intra=0 / bframes=3 / b_pyramid=2 / b_adapt=2 / b_bias=0 / direct=3 / weightb=1 / open_gop=0 / weightp=2 / keyint=250 / keyint_min=25 / scenecut=40 / intra_refresh=0 / rc_lookahead=48 / rc=crf / mbtree=1 / crf=16.0 / qcomp=0.60 / qpmin=0 / qpmax=69 / qpstep=4 / ip_ratio=1.40 / aq=3:1.00 Default : Yes Forced : No Color range : Limited Matrix coefficients : BT.709 Audio #1 ID : 2 Format : DTS XLL Format/Info : Digital Theater Systems Commercial name : DTS-HD Master Audio Codec ID : A_DTS Duration : 1 h 37 min Bit rate mode : Variable Bit rate : 1 989 kb/s Channel(s) : 6 channels Channel layout : C L R Ls Rs LFE Sampling rate : 48.0 kHz Frame rate : 93.750 FPS (512 SPF) Bit depth : 16 bits Compression mode : Lossless Stream size : 1.35 GiB (18%) Language : German Default : Yes Forced : No Audio #2 ID : 3 Format : DTS XLL Format/Info : Digital Theater Systems Commercial name : DTS-HD Master Audio Codec ID : A_DTS Duration : 1 h 37 min Bit rate mode : Variable Bit rate : 2 017 kb/s Channel(s) : 6 channels Channel layout : C L R Ls Rs LFE Sampling rate : 48.0 kHz Frame rate : 93.750 FPS (512 SPF) Bit depth : 16 bits Compression mode : Lossless Stream size : 1.37 GiB (18%) Language : English Default : No Forced : No Menu 00:00:00.000 : en:00:00:00.000 00:02:52.339 : en:00:02:52.339 00:11:37.572 : en:00:11:37.572 00:17:25.169 : en:00:17:25.169 00:28:01.763 : en:00:28:01.763 00:35:40.972 : en:00:35:40.972 00:43:01.078 : en:00:43:01.078 00:51:40.180 : en:00:51:40.180 00:58:42.018 : en:00:58:42.018 01:09:10.063 : en:01:09:10.063 01:20:23.736 : en:01:20:23.736 01:32:13.361 : en:01:32:13.361 ​

    Anmerkung:
    Dies ist ein Original BluRay Encode.

    408p:[​IMG]720p:[​IMG]1080p:[​IMG]1080p DTS:[​IMG]

    Geschützter Bereich
    Registriere dich oder logge dich ein, um den Inhalt sehen zu können
     
    nemo, Kristal, Witchmaster und 22 anderen gefällt das.

Diese Seite empfehlen