Welcome to our Community
Wanting to join the rest of our members? Feel free to sign up today.
Sign up

Ponyo: Das große Abenteuer am Meer | Gake no Ue no Ponyo [Ger-Jap-Dub][Ger-Sub][720p|1080p][E-AC-3|DTS-HD][8bits|10bits][x264|x265|AV1][BluRay] - AO

Kleinmike

Uploader
Otaku König
21 März 2021
284
4.681
93


Ponyo: Das große Abenteuer am Meer | Gake no Ue no Ponyo



4275_300.webp



oie_bchbujbgr3vm-png.30595
anisearch.com schrieb:
Der fünfjährige Sousuke wohnt irgendwo am japanischen Binnenmeer in einem Haus auf den Klippen oberhalb eines kleinen Hafenstädtchens. Seine fürsorgliche Mutter Lisa arbeitet in einem Altenpflegeheim direkt neben den Kinderhort, den Sousuke besucht. Derweil verbringt sein Vater Koichi als Schiffskapitän die meiste Zeit auf hoher See und kann somit nur selten am Familienleben teilhaben.

Eines Tages rettet Sousuke ein mit Mini-Menschenkopf versehenes Schuppentier, das gefangen in einem Glas an den Strand gespült wird. Sousuke verliert keine Zeit sich über das ungewöhnliche Haupt des Fischs zu wundern, sondern bietet ihm mithilfe eines Wasserhahns und eines grünen Eimers flott eine neue Bleibe. Ohne große Worte haben Ponyo, wie er den Fisch spontan nennt, und Sousuke einen Heidenspaß, an dem auch die Menschen im Umfeld des Fünfjährigen teilhaben sollen. Mutter Risa zeigt sich bereits auf der Fahrt zum Kinderhort erfreut über die Zuneigung ihres Juniors zu dessen Eimerinhalt. Sousukes Sandkastenfreundin Kumiko erreicht die Sympathieebene der eifersüchtigen Ponyo hingegen nicht auf Anhieb und wird von der Goldfischdame erst einmal kräftig nass gespritzt. Auch dem Urteil der drei von Lisa betreuten Greisinnen muss sich Ponyo unterziehen. Während die mürrische Toki den Goldfisch als Unheilbringerin einer großen Sturmflut prophezeit, sind die liebenswerten Damen Noriko und Yoshie von dem quirligen Wasserweibchen absolut fasziniert …
Quelle: https://www.anisearch.de/anime/4275,gake-no-ue-no-ponyo



oie_bchbujbgr3vm1-png.30596


Spieldauer: ~1h 41min
Genre: Abenteuer
Nebengenres: Fantasy, Komödie
Jahr: 2008
Sprache:
Deutsch.png
Deutsch,
Japanisch.png
Japanisch
Untertitel:
Deutsch.png
Deutsch
Größe: ~4.09GiB | ~11.9GiB | ~14.8GiB | ~10.01GiB
Format: MKV
Auflösung: 720p (16:9) | 1080p (16:9)
Videocodec: x264(AVC) | x265(HEVC) | AV1(AOM)
Audiocodec: DTS-HD | E-AC-3
Releasegruppe: Anime Otakus
Hoster:
rapidgator-gif.30742
Rapidgator,
ddownload-gif.30720
ddownload


oie_bchbujbgr3vm2-png.30597

Rich (BBCode):

Format                                   : Matroska
Format version                           : Version 4
File size                                : 4.09 GiB
Duration                                 : 1 h 41 min
Overall bit rate                         : 5 773 kb/s
Writing application                      : no_variable_data
Writing library                          : no_variable_data
Release by                               : Anime Otakus
Version                                  : 1.3

Video
ID                                       : 1
Format                                   : AVC
Format/Info                              : Advanced Video Codec
Format profile                           : [email protected]
Format settings                          : CABAC / 8 Ref Frames
Format settings, CABAC                   : Yes
Format settings, Reference frames        : 8 frames
Codec ID                                 : V_MPEG4/ISO/AVC
Duration                                 : 1 h 41 min
Bit rate                                 : 4 378 kb/s
Width                                    : 1 280 pixels
Height                                   : 720 pixels
Display aspect ratio                     : 16:9
Frame rate mode                          : Constant
Frame rate                               : 23.976 (24000/1001) FPS
Color space                              : YUV
Chroma subsampling                       : 4:2:0
Bit depth                                : 8 bits
Scan type                                : Progressive
Bits/(Pixel*Frame)                       : 0.198
Stream size                              : 3.10 GiB (76%)
Language                                 : English
Default                                  : No
Forced                                   : No
Color range                              : Limited
Color primaries                          : BT.709
Transfer characteristics                 : BT.709
Matrix coefficients                      : BT.709

Audio #1
ID                                       : 3
Format                                   : E-AC-3
Format/Info                              : Enhanced AC-3
Commercial name                          : Dolby Digital Plus
Codec ID                                 : A_EAC3
Duration                                 : 1 h 41 min
Bit rate mode                            : Constant
Bit rate                                 : 640 kb/s
Channel(s)                               : 5 channels
Channel layout                           : L R C Ls Rs
Sampling rate                            : 48.0 kHz
Frame rate                               : 31.250 FPS (1536 SPF)
Bit depth                                : 32 bits
Compression mode                         : Lossy
Delay relative to video                  : -47 ms
Stream size                              : 464 MiB (11%)
Title                                    : Surround 6.1
Language                                 : German
Service kind                             : Complete Main
Default                                  : Yes
Forced                                   : No

Audio #2
ID                                       : 4
Format                                   : E-AC-3
Format/Info                              : Enhanced AC-3
Commercial name                          : Dolby Digital Plus
Codec ID                                 : A_EAC3
Duration                                 : 1 h 41 min
Bit rate mode                            : Constant
Bit rate                                 : 640 kb/s
Channel(s)                               : 5 channels
Channel layout                           : L R C Ls Rs
Sampling rate                            : 48.0 kHz
Frame rate                               : 31.250 FPS (1536 SPF)
Bit depth                                : 32 bits
Compression mode                         : Lossy
Delay relative to video                  : -47 ms
Stream size                              : 464 MiB (11%)
Title                                    : Surround 6.1
Language                                 : Japanese
Service kind                             : Complete Main
Default                                  : No
Forced                                   : No

Text
ID                                       : 2
Format                                   : PGS
Muxing mode                              : zlib
Codec ID                                 : S_HDMV/PGS
Codec ID/Info                            : Picture based subtitle format used on BDs/HD-DVDs
Title                                    : German Full
Language                                 : German
Default                                  : No
Forced                                   : No

Menu
00:00:00.000                             : :Chapter 01
00:08:37.016                             : :Chapter 02
00:16:45.754                             : :Chapter 03
00:24:43.106                             : :Chapter 04
00:30:37.252                             : :Chapter 05
00:40:23.129                             : :Chapter 06
00:48:36.663                             : :Chapter 07
00:57:52.469                             : :Chapter 08
01:05:06.527                             : :Chapter 09
01:15:02.748                             : :Chapter 10
01:21:16.329                             : :Chapter 11
01:29:40.541                             : :Chapter 12
01:39:42.601                             : :Chapter 13
Rich (BBCode):

Format                                   : Matroska
Format version                           : Version 4
File size                                : 11.9 GiB
Duration                                 : 1 h 41 min
Overall bit rate mode                    : Variable
Overall bit rate                         : 16.8 Mb/s
Writing application                      : no_variable_data
Writing library                          : no_variable_data
Release by                               : Anime Otakus
Version                                  : 1.3

Video
ID                                       : 1
Format                                   : AVC
Format/Info                              : Advanced Video Codec
Format profile                           : [email protected]
Format settings                          : CABAC / 12 Ref Frames
Format settings, CABAC                   : Yes
Format settings, Reference frames        : 12 frames
Codec ID                                 : V_MPEG4/ISO/AVC
Duration                                 : 1 h 41 min
Bit rate                                 : 11.6 Mb/s
Width                                    : 1 920 pixels
Height                                   : 1 080 pixels
Display aspect ratio                     : 16:9
Frame rate mode                          : Constant
Frame rate                               : 23.976 (24000/1001) FPS
Color space                              : YUV
Chroma subsampling                       : 4:2:0
Bit depth                                : 8 bits
Scan type                                : Progressive
Bits/(Pixel*Frame)                       : 0.233
Stream size                              : 8.21 GiB (69%)
Language                                 : English
Default                                  : No
Forced                                   : No
Color range                              : Limited
Color primaries                          : BT.709
Transfer characteristics                 : BT.709
Matrix coefficients                      : BT.709

Audio #1
ID                                       : 3
Format                                   : DTS ES XXCH XLL
Format/Info                              : Digital Theater Systems
Commercial name                          : DTS-HD Master Audio
Codec ID                                 : A_DTS
Duration                                 : 1 h 41 min
Bit rate mode                            : Variable
Bit rate                                 : 2 605 kb/s
Channel(s)                               : 7 channels
Channel layout                           : C L R Ls Rs LFE Cb
Sampling rate                            : 48.0 kHz
Frame rate                               : 93.750 FPS (512 SPF)
Bit depth                                : 16 bits
Compression mode                         : Lossless
Delay relative to video                  : -42 ms
Stream size                              : 1.84 GiB (16%)
Title                                    : Surround 6.1
Language                                 : German
Default                                  : Yes
Forced                                   : No

Audio #2
ID                                       : 4
Format                                   : DTS ES XXCH XLL
Format/Info                              : Digital Theater Systems
Commercial name                          : DTS-HD Master Audio
Codec ID                                 : A_DTS
Duration                                 : 1 h 41 min
Bit rate mode                            : Variable
Bit rate                                 : 2 589 kb/s
Channel(s)                               : 7 channels
Channel layout                           : C L R Ls Rs LFE Cb
Sampling rate                            : 48.0 kHz
Frame rate                               : 93.750 FPS (512 SPF)
Bit depth                                : 16 bits
Compression mode                         : Lossless
Delay relative to video                  : -42 ms
Stream size                              : 1.83 GiB (15%)
Title                                    : Surround 6.1
Language                                 : Japanese
Default                                  : No
Forced                                   : No

Text
ID                                       : 2
Format                                   : PGS
Muxing mode                              : zlib
Codec ID                                 : S_HDMV/PGS
Codec ID/Info                            : Picture based subtitle format used on BDs/HD-DVDs
Duration                                 : 1 h 37 min
Bit rate                                 : 21.8 kb/s
Count of elements                        : 1444
Stream size                              : 15.2 MiB (0%)
Title                                    : German Full
Language                                 : German
Default                                  : No
Forced                                   : No

Menu
00:00:00.000                             : :Chapter 01
00:08:37.016                             : :Chapter 02
00:16:45.754                             : :Chapter 03
00:24:43.106                             : :Chapter 04
00:30:37.252                             : :Chapter 05
00:40:23.129                             : :Chapter 06
00:48:36.663                             : :Chapter 07
00:57:52.469                             : :Chapter 08
01:05:06.527                             : :Chapter 09
01:15:02.748                             : :Chapter 10
01:21:16.329                             : :Chapter 11
01:29:40.541                             : :Chapter 12
01:39:42.601                             : :Chapter 13
Rich (BBCode):

Format                                   : Matroska
Format version                           : Version 4
File size                                : 14.8 GiB
Duration                                 : 1 h 41 min
Overall bit rate mode                    : Variable
Overall bit rate                         : 20.9 Mb/s
Writing application                      : no_variable_data
Writing library                          : no_variable_data
Release by                               : Anime Otakus
Version                                  : 1.3

Video
ID                                       : 1
Format                                   : HEVC
Format/Info                              : High Efficiency Video Coding
Format profile                           : Main [email protected]@Main
Codec ID                                 : V_MPEGH/ISO/HEVC
Duration                                 : 1 h 41 min
Width                                    : 1 920 pixels
Height                                   : 1 080 pixels
Display aspect ratio                     : 16:9
Frame rate mode                          : Constant
Frame rate                               : 23.976 (24000/1001) FPS
Color space                              : YUV
Chroma subsampling                       : 4:2:0 (Type 0)
Bit depth                                : 10 bits
Language                                 : English
Default                                  : No
Forced                                   : No
Color range                              : Limited

Audio #1
ID                                       : 3
Format                                   : DTS ES XXCH XLL
Format/Info                              : Digital Theater Systems
Commercial name                          : DTS-HD Master Audio
Codec ID                                 : A_DTS
Duration                                 : 1 h 41 min
Bit rate mode                            : Variable
Channel(s)                               : 7 channels
Channel layout                           : C L R Ls Rs LFE Cb
Sampling rate                            : 48.0 kHz
Frame rate                               : 93.750 FPS (512 SPF)
Bit depth                                : 16 bits
Compression mode                         : Lossless
Delay relative to video                  : -42 ms
Title                                    : Surround 6.1
Language                                 : German
Default                                  : Yes
Forced                                   : No

Audio #2
ID                                       : 4
Format                                   : DTS ES XXCH XLL
Format/Info                              : Digital Theater Systems
Commercial name                          : DTS-HD Master Audio
Codec ID                                 : A_DTS
Duration                                 : 1 h 41 min
Bit rate mode                            : Variable
Channel(s)                               : 7 channels
Channel layout                           : C L R Ls Rs LFE Cb
Sampling rate                            : 48.0 kHz
Frame rate                               : 93.750 FPS (512 SPF)
Bit depth                                : 16 bits
Compression mode                         : Lossless
Delay relative to video                  : -42 ms
Title                                    : Surround 6.1
Language                                 : Japanese
Default                                  : No
Forced                                   : No

Text
ID                                       : 2
Format                                   : PGS
Muxing mode                              : zlib
Codec ID                                 : S_HDMV/PGS
Codec ID/Info                            : Picture based subtitle format used on BDs/HD-DVDs
Title                                    : German Full
Language                                 : German
Default                                  : No
Forced                                   : No

Menu
00:00:00.000                             : :Chapter 01
00:08:37.016                             : :Chapter 02
00:16:45.754                             : :Chapter 03
00:24:43.106                             : :Chapter 04
00:30:37.252                             : :Chapter 05
00:40:23.129                             : :Chapter 06
00:48:36.663                             : :Chapter 07
00:57:52.469                             : :Chapter 08
01:05:06.527                             : :Chapter 09
01:15:02.748                             : :Chapter 10
01:21:16.329                             : :Chapter 11
01:29:40.541                             : :Chapter 12
01:39:42.601                             : :Chapter 13
Rich (BBCode):

Format                                   : Matroska
Format version                           : Version 4
File size                                : 10.1 GiB
Duration                                 : 1 h 41 min
Overall bit rate mode                    : Variable
Overall bit rate                         : 14.2 Mb/s
Writing application                      : no_variable_data
Writing library                          : no_variable_data
Released by                              : Anime Otakus
Version                                  : 1.3

Video
ID                                       : 1
Format                                   : AV1
Format/Info                              : AOMedia Video 1
Format profile                           : [email protected]
Codec ID                                 : V_AV1
Duration                                 : 1 h 41 min
Bit rate                                 : 8 992 kb/s
Width                                    : 1 920 pixels
Height                                   : 1 080 pixels
Display aspect ratio                     : 16:9
Frame rate mode                          : Constant
Frame rate                               : 23.976 (24000/1001) FPS
Color space                              : YUV
Chroma subsampling                       : 4:2:0
Bit depth                                : 10 bits
Bits/(Pixel*Frame)                       : 0.181
Stream size                              : 6.36 GiB (63%)
Default                                  : No
Forced                                   : No
Color range                              : Limited
Color primaries                          : BT.709
Transfer characteristics                 : BT.709
Matrix coefficients                      : BT.709

Audio #1
ID                                       : 3
Format                                   : DTS ES XXCH XLL
Format/Info                              : Digital Theater Systems
Commercial name                          : DTS-HD Master Audio
Codec ID                                 : A_DTS
Duration                                 : 1 h 41 min
Bit rate mode                            : Variable
Bit rate                                 : 2 605 kb/s
Channel(s)                               : 7 channels
Channel layout                           : C L R Ls Rs LFE Cb
Sampling rate                            : 48.0 kHz
Frame rate                               : 93.750 FPS (512 SPF)
Bit depth                                : 16 bits
Compression mode                         : Lossless
Stream size                              : 1.84 GiB (18%)
Title                                    : Surround 6.1
Language                                 : German
Default                                  : Yes
Forced                                   : No

Audio #2
ID                                       : 4
Format                                   : DTS ES XXCH XLL
Format/Info                              : Digital Theater Systems
Commercial name                          : DTS-HD Master Audio
Codec ID                                 : A_DTS
Duration                                 : 1 h 41 min
Bit rate mode                            : Variable
Bit rate                                 : 2 589 kb/s
Channel(s)                               : 7 channels
Channel layout                           : C L R Ls Rs LFE Cb
Sampling rate                            : 48.0 kHz
Frame rate                               : 93.750 FPS (512 SPF)
Bit depth                                : 16 bits
Compression mode                         : Lossless
Stream size                              : 1.83 GiB (18%)
Title                                    : Surround 6.1
Language                                 : Japanese
Default                                  : No
Forced                                   : No

Text
ID                                       : 2
Format                                   : PGS
Muxing mode                              : zlib
Codec ID                                 : S_HDMV/PGS
Codec ID/Info                            : Picture based subtitle format used on BDs/HD-DVDs
Duration                                 : 1 h 37 min
Bit rate                                 : 21.8 kb/s
Count of elements                        : 1444
Stream size                              : 15.2 MiB (0%)
Title                                    : German Full
Language                                 : German
Default                                  : No
Forced                                   : No

Menu
00:00:00.000                             : :Chapter 01
00:08:37.016                             : :Chapter 02
00:16:45.754                             : :Chapter 03
00:24:43.106                             : :Chapter 04
00:30:37.252                             : :Chapter 05
00:40:23.129                             : :Chapter 06
00:48:36.663                             : :Chapter 07
00:57:52.469                             : :Chapter 08
01:05:06.527                             : :Chapter 09
01:15:02.748                             : :Chapter 10
01:21:16.329                             : :Chapter 11
01:29:40.541                             : :Chapter 12
01:39:42.601                             : :Chapter 13



oie_bchbujbgr3vm3-png.30598

cooltext396117611400625-png.30739

djclne9-png.30614
22738F8048.png

zt2lbs3-png.30611
1E8A3D4739.png

cfa5dsl-png.30616
dm5wkw6-png.30611
1E19635FAA.png

cfa5dsl1-png.30874
dm5wkw6-png.30611
B5A21A03F8.png


cooltext3961176114006251-png.30741

djclne9-png.30614
B58F882F95.png

zt2lbs3-png.30611
E9FA068069.png

cfa5dsl-png.30616
dm5wkw6-png.30611
66D7BFCCB8.png

cfa5dsl1-png.30874
dm5wkw6-png.30611
E4506D0A97.png


To view the content, you need to Sign In or Register.