Welcome to our Community
Wanting to join the rest of our members? Feel free to sign up today.
Sign up

Porco Rosso | Kurenai no Buta [Ger-Jap-Dub][Ger-Sub][720p|1080p][E-AC-3|DTS-HD][8bits|10bits][x264|x265|AV1][BluRay] - AO

Kleinmike

Uploader
Otaku König
21 März 2021
284
4.712
93


Pòrco Rósso | Kurenai no Buta



1386_300.webp



oie_bchbujbgr3vm-png.30595
anisearch.com schrieb:
Im Italien der zwanziger Jahre gibt es einen Landstrich in der Adria, der von der fliegenden Räuberbande „Mamma Aiuto“, notorischen Langfingern, heimgesucht wird. Doch man ist bei weitem nicht wehrlos. Immer wenn sich der Staat der Lage nicht gewachsen fühlt, ruft man nach „Porco Rosso“, einem tollkühnen Piloten, einem Ass hinter dem Steuerknüppel, einem Draufgänger … einem Schwein. Man erfährt nicht, wer oder was den Piloten Marco in den ungewöhnlichen Zustand versetzt hat, in dem er sich befindet, aber augenscheinlich ist ihm das auch egal. Er hat sich mit dem faschistischen Staat, den gierigen Menschen und den harten Zeiten arrangiert, was ihm einen leicht zynischen Humor eingebracht hat. Doch im Laufe des Films muss er die Meinung über seine Mitmenschen noch einmal überdenken …
Quelle: https://www.anisearch.de/anime/1386,kurenai-no-buta



oie_bchbujbgr3vm1-png.30596


Spieldauer: ~1h 33min
Genre: Action
Nebengenres: Abenteuer, Romanze, Komödie
Jahr: 2008
Sprache:
Deutsch.png
Deutsch,
Japanisch.png
Japanisch
Untertitel:
Deutsch.png
Deutsch
Größe: ~5.41GiB | ~16.4GiB | ~17.0GiB | ~6.61GiB
Format: MKV
Auflösung: 720p (16:9) | 1080p (16:9)
Videocodec: x264(AVC) | x265(HEVC) | AV1(AOM)
Audiocodec: DTS-HD | E-AC-3
Releasegruppe: Anime Otakus
Hoster:
rapidgator-gif.30742
Rapidgator,
ddownload-gif.30720
ddownload


oie_bchbujbgr3vm2-png.30597

Rich (BBCode):

Format                                   : Matroska
Format version                           : Version 4
File size                                : 5.41 GiB
Duration                                 : 1 h 33 min
Overall bit rate                         : 8 293 kb/s
Writing application                      : no_variable_data
Writing library                          : no_variable_data
Release by                               : Anime Otakus
Version                                  : 1.3

Video
ID                                       : 1
Format                                   : AVC
Format/Info                              : Advanced Video Codec
Format profile                           : [email protected]
Format settings                          : CABAC / 8 Ref Frames
Format settings, CABAC                   : Yes
Format settings, Reference frames        : 8 frames
Codec ID                                 : V_MPEG4/ISO/AVC
Duration                                 : 1 h 33 min
Bit rate                                 : 6 848 kb/s
Width                                    : 1 280 pixels
Height                                   : 720 pixels
Display aspect ratio                     : 16:9
Frame rate mode                          : Constant
Frame rate                               : 23.976 (24000/1001) FPS
Color space                              : YUV
Chroma subsampling                       : 4:2:0
Bit depth                                : 8 bits
Scan type                                : Progressive
Bits/(Pixel*Frame)                       : 0.310
Stream size                              : 4.46 GiB (83%)
Language                                 : English
Default                                  : No
Forced                                   : No
Color range                              : Limited
Color primaries                          : BT.709
Transfer characteristics                 : BT.709
Matrix coefficients                      : BT.709

Audio #1
ID                                       : 3
Format                                   : E-AC-3
Format/Info                              : Enhanced AC-3
Commercial name                          : Dolby Digital Plus
Codec ID                                 : A_EAC3
Duration                                 : 1 h 33 min
Bit rate mode                            : Constant
Bit rate                                 : 640 kb/s
Channel(s)                               : 2 channels
Channel layout                           : L R
Sampling rate                            : 48.0 kHz
Frame rate                               : 31.250 FPS (1536 SPF)
Bit depth                                : 32 bits
Compression mode                         : Lossy
Delay relative to video                  : -5 ms
Stream size                              : 427 MiB (8%)
Title                                    : Stereo
Language                                 : German
Service kind                             : Complete Main
Default                                  : Yes
Forced                                   : No

Audio #2
ID                                       : 4
Format                                   : E-AC-3
Format/Info                              : Enhanced AC-3
Commercial name                          : Dolby Digital Plus
Codec ID                                 : A_EAC3
Duration                                 : 1 h 33 min
Bit rate mode                            : Constant
Bit rate                                 : 640 kb/s
Channel(s)                               : 2 channels
Channel layout                           : L R
Sampling rate                            : 48.0 kHz
Frame rate                               : 31.250 FPS (1536 SPF)
Bit depth                                : 32 bits
Compression mode                         : Lossy
Delay relative to video                  : -5 ms
Stream size                              : 427 MiB (8%)
Title                                    : Stereo
Language                                 : Japanese
Service kind                             : Complete Main
Default                                  : No
Forced                                   : No

Text
ID                                       : 2
Format                                   : PGS
Muxing mode                              : zlib
Codec ID                                 : S_HDMV/PGS
Codec ID/Info                            : Picture based subtitle format used on BDs/HD-DVDs
Title                                    : German Full
Language                                 : German
Default                                  : No
Forced                                   : No

Menu
00:00:00.000                             : :Chapter 01
00:09:16.597                             : :Chapter 02
00:15:33.432                             : :Chapter 03
00:25:24.022                             : :Chapter 04
00:31:35.018                             : :Chapter 05
00:38:21.382                             : :Chapter 06
00:44:57.569                             : :Chapter 07
00:53:36.213                             : :Chapter 08
01:02:44.051                             : :Chapter 09
01:11:37.126                             : :Chapter 10
01:18:34.042                             : :Chapter 11
01:28:18.626                             : :Chapter 12
Rich (BBCode):

Format                                   : Matroska
Format version                           : Version 4
File size                                : 16.4 GiB
Duration                                 : 1 h 33 min
Overall bit rate mode                    : Variable
Overall bit rate                         : 25.1 Mb/s
Writing application                      : no_variable_data
Writing library                          : no_variable_data
Release by                               : Anime Otakus
Version                                  : 1.3

Video
ID                                       : 1
Format                                   : AVC
Format/Info                              : Advanced Video Codec
Format profile                           : [email protected]
Format settings                          : CABAC / 12 Ref Frames
Format settings, CABAC                   : Yes
Format settings, Reference frames        : 12 frames
Codec ID                                 : V_MPEG4/ISO/AVC
Duration                                 : 1 h 33 min
Bit rate                                 : 22.3 Mb/s
Width                                    : 1 920 pixels
Height                                   : 1 080 pixels
Display aspect ratio                     : 16:9
Frame rate mode                          : Constant
Frame rate                               : 23.976 (24000/1001) FPS
Color space                              : YUV
Chroma subsampling                       : 4:2:0
Bit depth                                : 8 bits
Scan type                                : Progressive
Bits/(Pixel*Frame)                       : 0.448
Stream size                              : 14.5 GiB (89%)
Language                                 : English
Default                                  : No
Forced                                   : No
Color range                              : Limited
Color primaries                          : BT.709
Transfer characteristics                 : BT.709
Matrix coefficients                      : BT.709

Audio #1
ID                                       : 3
Format                                   : DTS XLL
Format/Info                              : Digital Theater Systems
Commercial name                          : DTS-HD Master Audio
Codec ID                                 : A_DTS
Duration                                 : 1 h 33 min
Bit rate mode                            : Variable
Bit rate                                 : 1 075 kb/s
Channel(s)                               : 2 channels
Channel layout                           : L R
Sampling rate                            : 48.0 kHz
Frame rate                               : 93.750 FPS (512 SPF)
Bit depth                                : 16 bits
Compression mode                         : Lossless
Stream size                              : 717 MiB (4%)
Title                                    : Stereo
Language                                 : German
Default                                  : Yes
Forced                                   : No

Audio #2
ID                                       : 4
Format                                   : DTS XLL
Format/Info                              : Digital Theater Systems
Commercial name                          : DTS-HD Master Audio
Codec ID                                 : A_DTS
Duration                                 : 1 h 33 min
Bit rate mode                            : Variable
Bit rate                                 : 1 781 kb/s
Channel(s)                               : 2 channels
Channel layout                           : L R
Sampling rate                            : 48.0 kHz
Frame rate                               : 93.750 FPS (512 SPF)
Bit depth                                : 24 bits
Compression mode                         : Lossless
Stream size                              : 1.16 GiB (7%)
Title                                    : Stereo
Language                                 : Japanese
Default                                  : No
Forced                                   : No

Text
ID                                       : 2
Format                                   : PGS
Muxing mode                              : zlib
Codec ID                                 : S_HDMV/PGS
Codec ID/Info                            : Picture based subtitle format used on BDs/HD-DVDs
Duration                                 : 1 h 29 min
Bit rate                                 : 33.2 kb/s
Count of elements                        : 1606
Stream size                              : 21.1 MiB (0%)
Title                                    : German Full
Language                                 : German
Default                                  : No
Forced                                   : No

Menu
00:00:00.000                             : :Chapter 01
00:09:16.597                             : :Chapter 02
00:15:33.432                             : :Chapter 03
00:25:24.022                             : :Chapter 04
00:31:35.018                             : :Chapter 05
00:38:21.382                             : :Chapter 06
00:44:57.569                             : :Chapter 07
00:53:36.213                             : :Chapter 08
01:02:44.051                             : :Chapter 09
01:11:37.126                             : :Chapter 10
01:18:34.042                             : :Chapter 11
01:28:18.626                             : :Chapter 12
Rich (BBCode):

Format                                   : Matroska
Format version                           : Version 4
File size                                : 17.0 GiB
Duration                                 : 1 h 33 min
Overall bit rate mode                    : Variable
Overall bit rate                         : 26.1 Mb/s
Writing application                      : no_variable_data
Writing library                          : no_variable_data
Release by                               : Anime Otakus
Version                                  : 1.3

Video
ID                                       : 1
Format                                   : HEVC
Format/Info                              : High Efficiency Video Coding
Format profile                           : Main [email protected]@Main
Codec ID                                 : V_MPEGH/ISO/HEVC
Duration                                 : 1 h 33 min
Width                                    : 1 920 pixels
Height                                   : 1 080 pixels
Display aspect ratio                     : 16:9
Frame rate mode                          : Constant
Frame rate                               : 23.976 (24000/1001) FPS
Color space                              : YUV
Chroma subsampling                       : 4:2:0 (Type 0)
Bit depth                                : 10 bits
Language                                 : English
Default                                  : No
Forced                                   : No
Color range                              : Limited
Color primaries                          : BT.709
Transfer characteristics                 : BT.709
Matrix coefficients                      : BT.709

Audio #1
ID                                       : 3
Format                                   : DTS XLL
Format/Info                              : Digital Theater Systems
Commercial name                          : DTS-HD Master Audio
Codec ID                                 : A_DTS
Duration                                 : 1 h 33 min
Bit rate mode                            : Variable
Channel(s)                               : 2 channels
Channel layout                           : L R
Sampling rate                            : 48.0 kHz
Frame rate                               : 93.750 FPS (512 SPF)
Bit depth                                : 16 bits
Compression mode                         : Lossless
Title                                    : Stereo
Language                                 : German
Default                                  : Yes
Forced                                   : No

Audio #2
ID                                       : 4
Format                                   : DTS XLL
Format/Info                              : Digital Theater Systems
Commercial name                          : DTS-HD Master Audio
Codec ID                                 : A_DTS
Duration                                 : 1 h 33 min
Bit rate mode                            : Variable
Channel(s)                               : 2 channels
Channel layout                           : L R
Sampling rate                            : 48.0 kHz
Frame rate                               : 93.750 FPS (512 SPF)
Bit depth                                : 24 bits
Compression mode                         : Lossless
Title                                    : Stereo
Language                                 : Japanese
Default                                  : No
Forced                                   : No

Text
ID                                       : 2
Format                                   : PGS
Muxing mode                              : zlib
Codec ID                                 : S_HDMV/PGS
Codec ID/Info                            : Picture based subtitle format used on BDs/HD-DVDs
Title                                    : German Full
Language                                 : German
Default                                  : No
Forced                                   : No

Menu
00:00:00.000                             : :Chapter 01
00:09:16.597                             : :Chapter 02
00:15:33.432                             : :Chapter 03
00:25:24.022                             : :Chapter 04
00:31:35.018                             : :Chapter 05
00:38:21.382                             : :Chapter 06
00:44:57.569                             : :Chapter 07
00:53:36.213                             : :Chapter 08
01:02:44.051                             : :Chapter 09
01:11:37.126                             : :Chapter 10
01:18:34.042                             : :Chapter 11
01:28:18.626                             : :Chapter 12
Rich (BBCode):

Format                                   : Matroska
Format version                           : Version 4
File size                                : 6.61 GiB
Duration                                 : 1 h 33 min
Overall bit rate mode                    : Variable
Overall bit rate                         : 10.1 Mb/s
Writing application                      : no_variable_data
Writing library                          : no_variable_data
Released by                              : Anime Otakus
Version                                  : 1.3

Video
ID                                       : 1
Format                                   : AV1
Format/Info                              : AOMedia Video 1
Format profile                           : [email protected]
Codec ID                                 : V_AV1
Duration                                 : 1 h 33 min
Bit rate                                 : 7 272 kb/s
Width                                    : 1 920 pixels
Height                                   : 1 080 pixels
Display aspect ratio                     : 16:9
Frame rate mode                          : Constant
Frame rate                               : 23.976 (24000/1001) FPS
Color space                              : YUV
Chroma subsampling                       : 4:2:0
Bit depth                                : 10 bits
Bits/(Pixel*Frame)                       : 0.146
Stream size                              : 4.74 GiB (72%)
Default                                  : No
Forced                                   : No
Color range                              : Limited
Color primaries                          : BT.709
Transfer characteristics                 : BT.709
Matrix coefficients                      : BT.709

Audio #1
ID                                       : 3
Format                                   : DTS XLL
Format/Info                              : Digital Theater Systems
Commercial name                          : DTS-HD Master Audio
Codec ID                                 : A_DTS
Duration                                 : 1 h 33 min
Bit rate mode                            : Variable
Bit rate                                 : 1 075 kb/s
Channel(s)                               : 2 channels
Channel layout                           : L R
Sampling rate                            : 48.0 kHz
Frame rate                               : 93.750 FPS (512 SPF)
Bit depth                                : 16 bits
Compression mode                         : Lossless
Stream size                              : 717 MiB (11%)
Title                                    : Stereo
Language                                 : German
Default                                  : Yes
Forced                                   : No

Audio #2
ID                                       : 4
Format                                   : DTS XLL
Format/Info                              : Digital Theater Systems
Commercial name                          : DTS-HD Master Audio
Codec ID                                 : A_DTS
Duration                                 : 1 h 33 min
Bit rate mode                            : Variable
Bit rate                                 : 1 781 kb/s
Channel(s)                               : 2 channels
Channel layout                           : L R
Sampling rate                            : 48.0 kHz
Frame rate                               : 93.750 FPS (512 SPF)
Bit depth                                : 24 bits
Compression mode                         : Lossless
Stream size                              : 1.16 GiB (18%)
Title                                    : Stereo
Language                                 : Japanese
Default                                  : No
Forced                                   : No

Text
ID                                       : 2
Format                                   : PGS
Muxing mode                              : zlib
Codec ID                                 : S_HDMV/PGS
Codec ID/Info                            : Picture based subtitle format used on BDs/HD-DVDs
Duration                                 : 1 h 29 min
Bit rate                                 : 33.2 kb/s
Count of elements                        : 1606
Stream size                              : 21.1 MiB (0%)
Title                                    : German Full
Language                                 : German
Default                                  : No
Forced                                   : No

Menu
00:00:00.000                             : :Chapter 01
00:09:16.597                             : :Chapter 02
00:15:33.432                             : :Chapter 03
00:25:24.022                             : :Chapter 04
00:31:35.018                             : :Chapter 05
00:38:21.382                             : :Chapter 06
00:44:57.569                             : :Chapter 07
00:53:36.213                             : :Chapter 08
01:02:44.051                             : :Chapter 09
01:11:37.126                             : :Chapter 10
01:18:34.042                             : :Chapter 11
01:28:18.626                             : :Chapter 12



oie_bchbujbgr3vm3-png.30598

cooltext396117611400625-png.30739

djclne9-png.30614
ADC6FF371E.png

zt2lbs3-png.30611
7D878C3C84.png

cfa5dsl-png.30616
dm5wkw6-png.30611
754FA50C10.png

cfa5dsl1-png.30874
dm5wkw6-png.30611
71568C5829.png


cooltext3961176114006251-png.30741

djclne9-png.30614
00CCB0D0BA.png

zt2lbs3-png.30611
6639A3CB7E.png

cfa5dsl-png.30616
dm5wkw6-png.30611
2C34FD4C78.png

cfa5dsl1-png.30874
dm5wkw6-png.30611
CD647FCA09.png


To view the content, you need to Sign In or Register.