Welcome to our Community
Wanting to join the rest of our members? Feel free to sign up today.
Sign up

Prinzessin Mononoke | Mononoke-hime [Ger-Jap-Dub][Ger-Eng-Sub][720p|1080p][E-AC-3|DTS-HD][x264|x265|AV1][BluRay] - AO

Kleinmike

Uploader
Otaku König
21 März 2021
284
4.716
93


Prinzessin Mononoke | Mononoke-hime



3320_300.webp



oie_bchbujbgr3vm-png.30595
anisearch.com schrieb:
Als der junge Krieger Ashitaka versucht, sein Dorf vor einem zum Dämon gewordenen Keiler zu beschützen, wird er von einem tödlichen Fluch befallen. Um sein eigenes Leben zu retten, reist er in Richtung Westen, wo er sich von den dort lebenden Göttern Hilfe erhofft. Kurz nach seiner Ankunft findet er sich jedoch inmitten eines Konfliktes wieder: Die tierischen Waldbewohner stehen den Menschen gegenüber, die den Wald zerstören, um an die metallischen Rohstoffe zu gelangen. Hierbei werden die Tiere von Prinzessin Mononoke, einer Frau, die von Wölfen aufgezogen wurde, angeführt.

Ashitaka versucht, die am Konflikt Beteiligten zu verstehen und das Blutvergießen zu stoppen; dies wird dadurch erschwert, dass ihm von beiden Seiten stets vorgeworfen wird, den jeweiligen Gegner zu unterstützen. Die Lage droht vollkommen zu eskalieren …
Quelle: https://www.anisearch.de/anime/3320



oie_bchbujbgr3vm1-png.30596


Spieldauer: ~2h 13min
Genre: Abenteuer
Nebengenres: Action, Drama, Fantasy, Romanze
Jahr: 1997
Sprache:
Deutsch.png
Deutsch,
Japanisch.png
Japanisch
Untertitel:
Deutsch.png
Deutsch
Größe: ~3.97GiB | ~17.4GiB | ~18.6GiB | ~15.00GiB
Format: MKV
Auflösung: 720p (16:9) | 1080p (16:9)
Videocodec: x264(AVC) | x265(HEVC) | AV1(AOM)
Audiocodec: DTS-HD | E-AC-3
Releasegruppe: Anime Otakus
Hoster:
rapidgator-gif.30742
Rapidgator,
ddownload-gif.30720
ddownload


oie_bchbujbgr3vm2-png.30597

Rich (BBCode):

Format                                   : Matroska
Format version                           : Version 4
File size                                : 3.97 GiB
Duration                                 : 2 h 13 min
Overall bit rate                         : 4 263 kb/s
Writing application                      : no_variable_data
Writing library                          : no_variable_data
Release by                               : Anime Otakus
Version                                  : 1.2

Video
ID                                       : 1
Format                                   : AVC
Format/Info                              : Advanced Video Codec
Format profile                           : [email protected]
Format settings                          : CABAC / 8 Ref Frames
Format settings, CABAC                   : Yes
Format settings, Reference frames        : 8 frames
Codec ID                                 : V_MPEG4/ISO/AVC
Duration                                 : 2 h 13 min
Bit rate                                 : 2 898 kb/s
Width                                    : 1 280 pixels
Height                                   : 720 pixels
Display aspect ratio                     : 16:9
Frame rate mode                          : Constant
Frame rate                               : 23.976 (24000/1001) FPS
Color space                              : YUV
Chroma subsampling                       : 4:2:0
Bit depth                                : 8 bits
Scan type                                : Progressive
Bits/(Pixel*Frame)                       : 0.131
Stream size                              : 2.70 GiB (68%)
Language                                 : English
Default                                  : No
Forced                                   : No
Color range                              : Limited
Color primaries                          : BT.709
Transfer characteristics                 : BT.709
Matrix coefficients                      : BT.709

Audio #1
ID                                       : 4
Format                                   : E-AC-3
Format/Info                              : Enhanced AC-3
Commercial name                          : Dolby Digital Plus
Codec ID                                 : A_EAC3
Duration                                 : 2 h 13 min
Bit rate mode                            : Constant
Bit rate                                 : 640 kb/s
Channel(s)                               : 6 channels
Channel layout                           : L R C LFE Ls Rs
Sampling rate                            : 48.0 kHz
Frame rate                               : 31.250 FPS (1536 SPF)
Bit depth                                : 32 bits
Compression mode                         : Lossy
Delay relative to video                  : -5 ms
Stream size                              : 610 MiB (15%)
Title                                    : Surround 5.1
Language                                 : German
Service kind                             : Complete Main
Default                                  : Yes
Forced                                   : No

Audio #2
ID                                       : 5
Format                                   : E-AC-3
Format/Info                              : Enhanced AC-3
Commercial name                          : Dolby Digital Plus
Codec ID                                 : A_EAC3
Duration                                 : 2 h 13 min
Bit rate mode                            : Constant
Bit rate                                 : 640 kb/s
Channel(s)                               : 6 channels
Channel layout                           : L R C LFE Ls Rs
Sampling rate                            : 48.0 kHz
Frame rate                               : 31.250 FPS (1536 SPF)
Bit depth                                : 32 bits
Compression mode                         : Lossy
Delay relative to video                  : -5 ms
Stream size                              : 610 MiB (15%)
Title                                    : Surround 5.1
Language                                 : Japanese
Service kind                             : Complete Main
Default                                  : No
Forced                                   : No

Text #1
ID                                       : 2
Format                                   : PGS
Muxing mode                              : zlib
Codec ID                                 : S_HDMV/PGS
Codec ID/Info                            : Picture based subtitle format used on BDs/HD-DVDs
Title                                    : German Full
Language                                 : German
Default                                  : Yes
Forced                                   : No

Text #2
ID                                       : 3
Format                                   : PGS
Muxing mode                              : zlib
Codec ID                                 : S_HDMV/PGS
Codec ID/Info                            : Picture based subtitle format used on BDs/HD-DVDs
Title                                    : German Forced
Language                                 : German
Default                                  : No
Forced                                   : No

Menu
00:00:00.000                             : :Chapter 01
00:01:17.911                             : :Chapter 02
00:06:44.237                             : :Chapter 03
00:12:28.664                             : :Chapter 04
00:18:48.127                             : :Chapter 05
00:23:12.933                             : :Chapter 06
00:28:48.852                             : :Chapter 07
00:36:23.890                             : :Chapter 08
00:41:31.489                             : :Chapter 09
00:44:17.321                             : :Chapter 10
00:49:58.412                             : :Chapter 11
00:55:36.082                             : :Chapter 12
01:00:31.961                             : :Chapter 13
01:07:50.691                             : :Chapter 14
01:12:41.982                             : :Chapter 15
01:18:35.127                             : :Chapter 16
01:22:26.566                             : :Chapter 17
01:28:19.711                             : :Chapter 18
01:33:21.429                             : :Chapter 19
01:38:13.304                             : :Chapter 20
01:42:51.248                             : :Chapter 21
01:48:31.505                             : :Chapter 22
01:52:53.308                             : :Chapter 23
01:59:18.401                             : :Chapter 24
02:05:03.496                             : :Chapter 25
02:08:32.079                             : :Chapter 26
Rich (BBCode):

Format                                   : Matroska
Format version                           : Version 4
File size                                : 17.4 GiB
Duration                                 : 2 h 13 min
Overall bit rate mode                    : Variable
Overall bit rate                         : 18.7 Mb/s
Writing application                      : no_variable_data
Writing library                          : no_variable_data
Release by                               : Anime Otakus
Version                                  : 1.2

Video
ID                                       : 1
Format                                   : AVC
Format/Info                              : Advanced Video Codec
Format profile                           : [email protected]
Format settings                          : CABAC / 12 Ref Frames
Format settings, CABAC                   : Yes
Format settings, Reference frames        : 12 frames
Codec ID                                 : V_MPEG4/ISO/AVC
Duration                                 : 2 h 13 min
Bit rate                                 : 10.2 Mb/s
Width                                    : 1 920 pixels
Height                                   : 1 080 pixels
Display aspect ratio                     : 16:9
Frame rate mode                          : Constant
Frame rate                               : 23.976 (24000/1001) FPS
Color space                              : YUV
Chroma subsampling                       : 4:2:0
Bit depth                                : 8 bits
Scan type                                : Progressive
Bits/(Pixel*Frame)                       : 0.205
Stream size                              : 9.48 GiB (54%)
Language                                 : English
Default                                  : No
Forced                                   : No
Color range                              : Limited
Color primaries                          : BT.709
Transfer characteristics                 : BT.709
Matrix coefficients                      : BT.709

Audio #1
ID                                       : 4
Format                                   : DTS XLL
Format/Info                              : Digital Theater Systems
Commercial name                          : DTS-HD Master Audio
Codec ID                                 : A_DTS
Duration                                 : 2 h 13 min
Bit rate mode                            : Variable
Bit rate                                 : 4 208 kb/s
Channel(s)                               : 6 channels
Channel layout                           : C L R Ls Rs LFE
Sampling rate                            : 48.0 kHz
Frame rate                               : 93.750 FPS (512 SPF)
Bit depth                                : 24 bits
Compression mode                         : Lossless
Stream size                              : 3.92 GiB (22%)
Title                                    : Surround 5.1
Language                                 : German
Default                                  : Yes
Forced                                   : No

Audio #2
ID                                       : 5
Format                                   : DTS XLL
Format/Info                              : Digital Theater Systems
Commercial name                          : DTS-HD Master Audio
Codec ID                                 : A_DTS
Duration                                 : 2 h 13 min
Bit rate mode                            : Variable
Bit rate                                 : 4 326 kb/s
Channel(s)                               : 6 channels
Channel layout                           : C L R Ls Rs LFE
Sampling rate                            : 48.0 kHz
Frame rate                               : 93.750 FPS (512 SPF)
Bit depth                                : 24 bits
Compression mode                         : Lossless
Stream size                              : 4.03 GiB (23%)
Title                                    : Surround 5.1
Language                                 : Japanese
Default                                  : No
Forced                                   : No

Text #1
ID                                       : 2
Format                                   : PGS
Muxing mode                              : zlib
Codec ID                                 : S_HDMV/PGS
Codec ID/Info                            : Picture based subtitle format used on BDs/HD-DVDs
Duration                                 : 2 h 7 min
Bit rate                                 : 28.4 kb/s
Count of elements                        : 1497
Stream size                              : 26.0 MiB (0%)
Title                                    : German Full
Language                                 : German
Default                                  : Yes
Forced                                   : No

Text #2
ID                                       : 3
Format                                   : PGS
Muxing mode                              : zlib
Codec ID                                 : S_HDMV/PGS
Codec ID/Info                            : Picture based subtitle format used on BDs/HD-DVDs
Duration                                 : 5 s 527 ms
Bit rate                                 : 23.8 kb/s
Count of elements                        : 2
Stream size                              : 16.0 KiB (0%)
Title                                    : German Forced
Language                                 : German
Default                                  : No
Forced                                   : No

Menu
00:00:00.000                             : :Chapter 01
00:01:17.911                             : :Chapter 02
00:06:44.237                             : :Chapter 03
00:12:28.664                             : :Chapter 04
00:18:48.127                             : :Chapter 05
00:23:12.933                             : :Chapter 06
00:28:48.852                             : :Chapter 07
00:36:23.890                             : :Chapter 08
00:41:31.489                             : :Chapter 09
00:44:17.321                             : :Chapter 10
00:49:58.412                             : :Chapter 11
00:55:36.082                             : :Chapter 12
01:00:31.961                             : :Chapter 13
01:07:50.691                             : :Chapter 14
01:12:41.982                             : :Chapter 15
01:18:35.127                             : :Chapter 16
01:22:26.566                             : :Chapter 17
01:28:19.711                             : :Chapter 18
01:33:21.429                             : :Chapter 19
01:38:13.304                             : :Chapter 20
01:42:51.248                             : :Chapter 21
01:48:31.505                             : :Chapter 22
01:52:53.308                             : :Chapter 23
01:59:18.401                             : :Chapter 24
02:05:03.496                             : :Chapter 25
02:08:32.079                             : :Chapter 26
Rich (BBCode):

Format                                   : Matroska
Format version                           : Version 4
File size                                : 18.6 GiB
Duration                                 : 2 h 13 min
Overall bit rate mode                    : Variable
Overall bit rate                         : 20.0 Mb/s
Writing application                      : no_variable_data
Writing library                          : no_variable_data
Release by                               : Anime Otakus
Version                                  : 1.2

Video
ID                                       : 1
Format                                   : HEVC
Format/Info                              : High Efficiency Video Coding
Format profile                           : Main [email protected]@Main
Codec ID                                 : V_MPEGH/ISO/HEVC
Duration                                 : 2 h 13 min
Width                                    : 1 920 pixels
Height                                   : 1 080 pixels
Display aspect ratio                     : 16:9
Frame rate mode                          : Constant
Frame rate                               : 23.976 (24000/1001) FPS
Color space                              : YUV
Chroma subsampling                       : 4:2:0 (Type 0)
Bit depth                                : 10 bits
Language                                 : English
Default                                  : No
Forced                                   : No
Color range                              : Limited

Audio #1
ID                                       : 4
Format                                   : DTS XLL
Format/Info                              : Digital Theater Systems
Commercial name                          : DTS-HD Master Audio
Codec ID                                 : A_DTS
Duration                                 : 2 h 13 min
Bit rate mode                            : Variable
Channel(s)                               : 6 channels
Channel layout                           : C L R Ls Rs LFE
Sampling rate                            : 48.0 kHz
Frame rate                               : 93.750 FPS (512 SPF)
Bit depth                                : 24 bits
Compression mode                         : Lossless
Title                                    : Surround 5.1
Language                                 : German
Default                                  : Yes
Forced                                   : No

Audio #2
ID                                       : 5
Format                                   : DTS XLL
Format/Info                              : Digital Theater Systems
Commercial name                          : DTS-HD Master Audio
Codec ID                                 : A_DTS
Duration                                 : 2 h 13 min
Bit rate mode                            : Variable
Channel(s)                               : 6 channels
Channel layout                           : C L R Ls Rs LFE
Sampling rate                            : 48.0 kHz
Frame rate                               : 93.750 FPS (512 SPF)
Bit depth                                : 24 bits
Compression mode                         : Lossless
Title                                    : Surround 5.1
Language                                 : Japanese
Default                                  : No
Forced                                   : No

Text #1
ID                                       : 2
Format                                   : PGS
Muxing mode                              : zlib
Codec ID                                 : S_HDMV/PGS
Codec ID/Info                            : Picture based subtitle format used on BDs/HD-DVDs
Title                                    : German Full
Language                                 : German
Default                                  : Yes
Forced                                   : No

Text #2
ID                                       : 3
Format                                   : PGS
Muxing mode                              : zlib
Codec ID                                 : S_HDMV/PGS
Codec ID/Info                            : Picture based subtitle format used on BDs/HD-DVDs
Title                                    : German Forced
Language                                 : German
Default                                  : No
Forced                                   : No

Menu
00:00:00.000                             : :Chapter 01
00:01:17.911                             : :Chapter 02
00:06:44.237                             : :Chapter 03
00:12:28.664                             : :Chapter 04
00:18:48.127                             : :Chapter 05
00:23:12.933                             : :Chapter 06
00:28:48.852                             : :Chapter 07
00:36:23.890                             : :Chapter 08
00:41:31.489                             : :Chapter 09
00:44:17.321                             : :Chapter 10
00:49:58.412                             : :Chapter 11
00:55:36.082                             : :Chapter 12
01:00:31.961                             : :Chapter 13
01:07:50.691                             : :Chapter 14
01:12:41.982                             : :Chapter 15
01:18:35.127                             : :Chapter 16
01:22:26.566                             : :Chapter 17
01:28:19.711                             : :Chapter 18
01:33:21.429                             : :Chapter 19
01:38:13.304                             : :Chapter 20
01:42:51.248                             : :Chapter 21
01:48:31.505                             : :Chapter 22
01:52:53.308                             : :Chapter 23
01:59:18.401                             : :Chapter 24
02:05:03.496                             : :Chapter 25
02:08:32.079                             : :Chapter 26
Rich (BBCode):

Format                                   : Matroska
Format version                           : Version 4
File size                                : 15.0 GiB
Duration                                 : 2 h 13 min
Overall bit rate mode                    : Variable
Overall bit rate                         : 16.1 Mb/s
Writing application                      : no_variable_data
Writing library                          : no_variable_data
Released by                              : Anime Otakus
Version                                  : 1.3

Video
ID                                       : 1
Format                                   : AV1
Format/Info                              : AOMedia Video 1
Format profile                           : [email protected]
Codec ID                                 : V_AV1
Duration                                 : 2 h 13 min
Bit rate                                 : 7 528 kb/s
Width                                    : 1 920 pixels
Height                                   : 1 080 pixels
Display aspect ratio                     : 16:9
Frame rate mode                          : Constant
Frame rate                               : 23.976 (24000/1001) FPS
Color space                              : YUV
Chroma subsampling                       : 4:2:0
Bit depth                                : 10 bits
Bits/(Pixel*Frame)                       : 0.151
Stream size                              : 7.01 GiB (47%)
Default                                  : No
Forced                                   : No
Color range                              : Limited
Color primaries                          : BT.709
Transfer characteristics                 : BT.709
Matrix coefficients                      : BT.709

Audio #1
ID                                       : 6
Format                                   : DTS XLL
Format/Info                              : Digital Theater Systems
Commercial name                          : DTS-HD Master Audio
Codec ID                                 : A_DTS
Duration                                 : 2 h 13 min
Bit rate mode                            : Variable
Bit rate                                 : 4 208 kb/s
Channel(s)                               : 6 channels
Channel layout                           : C L R Ls Rs LFE
Sampling rate                            : 48.0 kHz
Frame rate                               : 93.750 FPS (512 SPF)
Bit depth                                : 24 bits
Compression mode                         : Lossless
Stream size                              : 3.92 GiB (26%)
Title                                    : Surround 5.1
Language                                 : German
Default                                  : Yes
Forced                                   : No

Audio #2
ID                                       : 7
Format                                   : DTS XLL
Format/Info                              : Digital Theater Systems
Commercial name                          : DTS-HD Master Audio
Codec ID                                 : A_DTS
Duration                                 : 2 h 13 min
Bit rate mode                            : Variable
Bit rate                                 : 4 326 kb/s
Channel(s)                               : 6 channels
Channel layout                           : C L R Ls Rs LFE
Sampling rate                            : 48.0 kHz
Frame rate                               : 93.750 FPS (512 SPF)
Bit depth                                : 24 bits
Compression mode                         : Lossless
Stream size                              : 4.03 GiB (27%)
Title                                    : Surround 5.1
Language                                 : Japanese
Default                                  : No
Forced                                   : No

Text #1
ID                                       : 2
Format                                   : PGS
Muxing mode                              : zlib
Codec ID                                 : S_HDMV/PGS
Codec ID/Info                            : Picture based subtitle format used on BDs/HD-DVDs
Duration                                 : 2 h 7 min
Bit rate                                 : 28.4 kb/s
Count of elements                        : 1497
Stream size                              : 26.0 MiB (0%)
Language                                 : German
Default                                  : Yes
Forced                                   : No

Text #2
ID                                       : 3
Format                                   : PGS
Muxing mode                              : zlib
Codec ID                                 : S_HDMV/PGS
Codec ID/Info                            : Picture based subtitle format used on BDs/HD-DVDs
Duration                                 : 2 h 8 min
Bit rate                                 : 29.2 kb/s
Count of elements                        : 1790
Stream size                              : 26.8 MiB (0%)
Title                                    : German Full
Language                                 : German
Default                                  : No
Forced                                   : No

Text #3
ID                                       : 4
Format                                   : PGS
Muxing mode                              : zlib
Codec ID                                 : S_HDMV/PGS
Codec ID/Info                            : Picture based subtitle format used on BDs/HD-DVDs
Duration                                 : 5 s 506 ms
Bit rate                                 : 23.9 kb/s
Count of elements                        : 2
Stream size                              : 16.0 KiB (0%)
Language                                 : German
Default                                  : No
Forced                                   : No

Text #4
ID                                       : 5
Format                                   : PGS
Muxing mode                              : zlib
Codec ID                                 : S_HDMV/PGS
Codec ID/Info                            : Picture based subtitle format used on BDs/HD-DVDs
Duration                                 : 5 s 506 ms
Bit rate                                 : 23.9 kb/s
Count of elements                        : 2
Stream size                              : 16.0 KiB (0%)
Language                                 : German
Default                                  : No
Forced                                   : No

Menu
00:00:00.000                             : :Chapter 01
00:01:17.911                             : :Chapter 02
00:06:44.237                             : :Chapter 03
00:12:28.664                             : :Chapter 04
00:18:48.127                             : :Chapter 05
00:23:12.933                             : :Chapter 06
00:28:48.852                             : :Chapter 07
00:36:23.890                             : :Chapter 08
00:41:31.489                             : :Chapter 09
00:44:17.321                             : :Chapter 10
00:49:58.412                             : :Chapter 11
00:55:36.082                             : :Chapter 12
01:00:31.961                             : :Chapter 13
01:07:50.691                             : :Chapter 14
01:12:41.982                             : :Chapter 15
01:18:35.127                             : :Chapter 16
01:22:26.566                             : :Chapter 17
01:28:19.711                             : :Chapter 18
01:33:21.429                             : :Chapter 19
01:38:13.304                             : :Chapter 20
01:42:51.248                             : :Chapter 21
01:48:31.505                             : :Chapter 22
01:52:53.308                             : :Chapter 23
01:59:18.401                             : :Chapter 24
02:05:03.496                             : :Chapter 25
02:08:32.079                             : :Chapter 26



oie_bchbujbgr3vm3-png.30598

cooltext396117611400625-png.30739

djclne9-png.30614
DD4C9E421F.png

zt2lbs3-png.30611
86A9D29857.png

cfa5dsl-png.30616
dm5wkw6-png.30611
418E969523.png

cfa5dsl1-png.30874
dm5wkw6-png.30611
400BCD07A6.png


cooltext3961176114006251-png.30741

djclne9-png.30614
DD4C9E421F.png

zt2lbs3-png.30611
33AC5337B5.png

cfa5dsl-png.30616
dm5wkw6-png.30611
81EBE098DC.png

cfa5dsl1-png.30874
dm5wkw6-png.30611
E0CE8C483C.png


To view the content, you need to Sign In or Register.