Welcome to our Community
Wanting to join the rest of our members? Feel free to sign up today.
Sign up

Rent-a-Girlfriend [Jap-Ger-Eng-Dub][Ger-Eng-Sub][1080p][x264][WebDL] - CR

Kleinmike

Uploader
Otaku König
21 März 2021
279
4.422
93
Rent-a-Girlfriend
彼女、お借りします | Kanojo, Okarishimasu

14816.webp


Beschreibung:
In »Rent-a-Girlfriend« versucht der vor kurzem von seiner Freundin verlassene Student Kazuya Kinoshita, sein gebrochenes Herz durch eine neue Freundin zu heilen, die er über eine Smartphone-App mietet. Nach seinem ersten Date mit Chizuru Mizuhara hat Kazuya jedoch gemischte Gefühle. Zwar erfüllt sie mit ihrem guten Aussehen und ihrem fürsorglichen Charakter alles, was er sich jemals hätte erträumen können, doch einige negative Bewertungen in Chizurus Profil lassen Kazuya skeptisch werden und so gelangt er zu der Annahme, sie könnte möglicherweise nur mit den Gefühlen der Männer spielen und verpasst ihr eine negative Bewertung.
Verärgert über das respektlose Verhalten enthüllt Chizuru auch prompt ihren wahren temperamentvollen Charakter. Als Kazuya genau in diesem Moment eine Nachricht vom Zusammenbruch seiner Großmutter erhält, sieht er sich dennoch dazu gezwungen, diese gemeinsam mit Chizuru im Krankenhaus zu besuchen. Kazuyas Großmutter ist von der frohen Botschaft, dass er endlich eine feste Freundin gefunden hat, begeistert. Und so fühlen sich Kazuya und Chizuru in die Situation hineingezwungen, nach außen hin vortäuschen zu müssen ein Liebespaar zu sein!
Quelle: anisearch

Episoden: 12/12
Größe: ~1400MB
Sprache: Japanisch | Deutsch | Englisch
Untertitel: Deutsch | Englisch
Jahr: 2020
Genres: Romantische Komödie, Alltagsleben, Ecchi, Harem
Auflösung: 1920x1080
Format: MKV
Videocodec: AVC
Farbtiefe: 8bit
Audiocodec: AAC LC
Publisher: Crunchyroll
Hoster: DDownload | Uploaded

Mediainfo:
Code:
Format                                   : Matroska
Format version                           : Version 4
File size                                : 1.43 GiB
Duration                                 : 24 min 27 s
Overall bit rate                         : 8 378 kb/s
Encoded date                             : UTC 2022-07-21 22:16:31
Writing application                      : mkvmerge v68.0.0 ('The Curtain') 64-bit
Writing library                          : libebml v1.4.2 + libmatroska v1.6.4 / Lavf58.76.100

Video
ID                                       : 1
Format                                   : AVC
Format/Info                              : Advanced Video Codec
Format profile                           : High@L4
Format settings                          : CABAC / 4 Ref Frames
Format settings, CABAC                   : Yes
Format settings, Reference frames        : 4 frames
Codec ID                                 : V_MPEG4/ISO/AVC
Duration                                 : 24 min 26 s
Bit rate                                 : 8 000 kb/s
Width                                    : 1 920 pixels
Height                                   : 1 080 pixels
Display aspect ratio                     : 16:9
Frame rate mode                          : Constant
Frame rate                               : 23.976 (24000/1001) FPS
Color space                              : YUV
Chroma subsampling                       : 4:2:0
Bit depth                                : 8 bits
Scan type                                : Progressive
Bits/(Pixel*Frame)                       : 0.161
Stream size                              : 1.36 GiB (95%)
Writing library                          : x264 core 142
Encoding settings                        : cabac=1 / ref=4 / deblock=1:1:1 / analyse=0x3:0x113 / me=umh / subme=8 / psy=1 / psy_rd=0.40:0.00 / mixed_ref=1 / me_range=16 / chroma_me=1 / trellis=1 / 8x8dct=1 / cqm=0 / deadzone=21,11 / fast_pskip=1 / chroma_qp_offset=-2 / threads=12 / lookahead_threads=2 / sliced_threads=0 / nr=0 / decimate=1 / interlaced=0 / bluray_compat=0 / constrained_intra=0 / bframes=0 / weightp=2 / keyint=96 / keyint_min=48 / scenecut=40 / intra_refresh=0 / rc_lookahead=48 / rc=2pass / mbtree=1 / bitrate=8000 / ratetol=1.0 / qcomp=0.60 / qpmin=0 / qpmax=69 / qpstep=4 / cplxblur=20.0 / qblur=0.5 / vbv_maxrate=12000 / vbv_bufsize=18000 / nal_hrd=none / filler=0 / ip_ratio=1.40 / aq=1:0.60
Default                                  : Yes
Forced                                   : No
VARIANT_BITRATE                          : 0

Audio #1
ID                                       : 2
Format                                   : AAC LC
Format/Info                              : Advanced Audio Codec Low Complexity
Codec ID                                 : A_AAC-2
Duration                                 : 24 min 27 s
Bit rate                                 : 128 kb/s
Channel(s)                               : 2 channels
Channel layout                           : L R
Sampling rate                            : 44.1 kHz
Frame rate                               : 43.066 FPS (1024 SPF)
Compression mode                         : Lossy
Stream size                              : 22.4 MiB (2%)
Language                                 : German
Default                                  : Yes
Forced                                   : No
VARIANT_BITRATE                          : 0

Audio #2
ID                                       : 3
Format                                   : AAC LC
Format/Info                              : Advanced Audio Codec Low Complexity
Codec ID                                 : A_AAC-2
Duration                                 : 24 min 27 s
Bit rate                                 : 128 kb/s
Channel(s)                               : 2 channels
Channel layout                           : L R
Sampling rate                            : 44.1 kHz
Frame rate                               : 43.066 FPS (1024 SPF)
Compression mode                         : Lossy
Stream size                              : 22.4 MiB (2%)
Language                                 : Japanese
Default                                  : No
Forced                                   : No

Audio #3
ID                                       : 4
Format                                   : AAC LC
Format/Info                              : Advanced Audio Codec Low Complexity
Codec ID                                 : A_AAC-2
Duration                                 : 24 min 27 s
Bit rate                                 : 128 kb/s
Channel(s)                               : 2 channels
Channel layout                           : L R
Sampling rate                            : 44.1 kHz
Frame rate                               : 43.066 FPS (1024 SPF)
Compression mode                         : Lossy
Delay relative to video                  : 5 ms
Stream size                              : 22.4 MiB (2%)
Language                                 : English
Default                                  : No
Forced                                   : No

Text #1
ID                                       : 5
Format                                   : ASS
Codec ID                                 : S_TEXT/ASS
Codec ID/Info                            : Advanced Sub Station Alpha
Duration                                 : 24 min 9 s
Bit rate                                 : 51 b/s
Count of elements                        : 65
Compression mode                         : Lossless
Stream size                              : 9.04 KiB (0%)
Title                                    : Deutsch / Deutsch
Language                                 : German
Default                                  : Yes
Forced                                   : No

Text #2
ID                                       : 6
Format                                   : ASS
Codec ID                                 : S_TEXT/ASS
Codec ID/Info                            : Advanced Sub Station Alpha
Duration                                 : 24 min 9 s
Bit rate                                 : 50 b/s
Count of elements                        : 65
Compression mode                         : Lossless
Stream size                              : 8.98 KiB (0%)
Title                                    : English
Language                                 : English
Default                                  : No
Forced                                   : No

Status:
1080p:
BAAF55FDAA.png


To view the content, you need to Sign In or Register.
 
Zuletzt bearbeitet: