Welcome to our Community
Wanting to join the rest of our members? Feel free to sign up today.
Sign up

OVA Rescue Me! [Jap-Dub][Ger-Sub][720p][8-Bit][1080p][10-Bit][BluRay] - DSS

Azugo

H͓̽u͓̽g͓̽o͓̽ ͓̽&͓̽ ͓̽A͓̽z͓̽u͓̽r͓̽a͓̽
Otaku Gott
Uploader
25 März 2020
3.598
36.318
118
Rescue Me!
れすきゅーMe!



ead6tahk.jpg



Kurzbeschreibung:
Mizutani Masayuki war ein ganz normaler Schüler, bis seine Eltern auf eine ausgedehnte Geschäftsreise gingen. Als er nach Hause kommt, steht seine Mitschülerin Shimizu Sayaka vor ihm und verkündet, von seinen Eltern als Hausmädchen angeheuert worden zu sein. Von diesem Tag an muss sich Masayuki mit den wilden Fantasien des selbst deklarierten Dienstmädchens und Ehefrau Sayaka, seiner gleichaltrigen Tante Takamura Yuka, deren Freundin Takagi Mai und seiner Mitschülerin Ozono Anna auseinandersetzen. Das friedvolle Leben ist damit vorbei, denn die Fantasien der Mädchen sind niemals jugendfrei.



Sprache: Japanisch
Untertitel: Deutsch
Format: .mp4
Auflösung: 720p & 1080p 10-Bit
Codec: x264
Gruppe: Dark Sub Subs
Hoster:
rapidgator-gif.30742
Rapidgator,
ddownload-gif.30720
ddownload


Datei Info:
Code:
[color=red]

Format                                   : MPEG-4
Format profile                           : Base Media / Version 2
Codec ID                                 : mp42
File size                                : 390 MiB
Duration                                 : 27mn 14s
Overall bit rate mode                    : Variable
Overall bit rate                         : 2 001 Kbps
Encoded date                             : UTC 2014-04-15 13:29:22
Tagged date                              : UTC 2014-04-15 14:05:42
Writing application                      : HandBrake 0.9.9 2013052900

Video
ID                                       : 1
Format                                   : AVC
Format/Info                              : Advanced Video Codec
Format profile                           : [email protected]
Format settings, CABAC                   : Yes
Format settings, ReFrames                : 8 frames
Codec ID                                 : avc1
Codec ID/Info                            : Advanced Video Coding
Duration                                 : 27mn 14s
Bit rate                                 : 1 870 Kbps
Width                                    : 1 280 pixels
Height                                   : 720 pixels
Display aspect ratio                     : 16:9
Frame rate mode                          : Variable
Frame rate                               : 23.976 fps
Minimum frame rate                       : 23.974 fps
Maximum frame rate                       : 23.981 fps
Color space                              : YUV
Chroma subsampling                       : 4:2:0
Bit depth                                : 8 bits
Scan type                                : Progressive
Bits/(Pixel*Frame)                       : 0.085
Stream size                              : 364 MiB (93%)
Writing library                          : x264 core 130 r2273 b3065e6
Encoding settings                        : cabac=1 / ref=8 / deblock=1:0:0 / analyse=0x1:0x131 / me=umh / subme=9 / psy=1 / psy_rd=1.00:0.00 / mixed_ref=1 / me_range=16 / chroma_me=1 / trellis=2 / 8x8dct=0 / cqm=0 / deadzone=21,11 / fast_pskip=1 / chroma_qp_offset=-2 / threads=6 / lookahead_threads=1 / sliced_threads=0 / nr=0 / decimate=1 / interlaced=0 / bluray_compat=0 / constrained_intra=0 / bframes=3 / b_pyramid=2 / b_adapt=2 / b_bias=0 / direct=3 / weightb=1 / open_gop=0 / weightp=2 / keyint=240 / keyint_min=24 / scenecut=40 / intra_refresh=0 / rc_lookahead=60 / rc=crf / mbtree=1 / crf=16.0 / qcomp=0.60 / qpmin=0 / qpmax=69 / qpstep=4 / vbv_maxrate=20000 / vbv_bufsize=25000 / crf_max=0.0 / nal_hrd=none / ip_ratio=1.40 / aq=1:1.00
Encoded date                             : UTC 2014-04-15 13:29:22
Tagged date                              : UTC 2014-04-15 14:05:42
Color primaries                          : BT.709
Transfer characteristics                 : BT.709
Matrix coefficients                      : BT.709

Audio
ID                                       : 2
Format                                   : AAC
Format/Info                              : Advanced Audio Codec
Format profile                           : LC
Codec ID                                 : 40
Duration                                 : 27mn 14s
Bit rate mode                            : Variable
Bit rate                                 : 125 Kbps
Maximum bit rate                         : 130 Kbps
Channel count                            : 2 channels
Channel positions                        : Front: L R
Sampling rate                            : 48.0 KHz
Compression mode                         : Lossy
Stream size                              : 24.4 MiB (6%)
Encoded date                             : UTC 2014-04-15 13:29:22
Tagged date                              : UTC 2014-04-15 14:05:41

Menu
ID                                       : 3
Codec ID                                 : text
Duration                                 : 27mn 14s
Encoded date                             : UTC 2014-04-15 13:29:22
Tagged date                              : UTC 2014-04-15 14:05:42
Bit rate mode                            : CBR

[/color]

Code:
[color=red]

Format                                   : Matroska
Format version                           : Version 4 / Version 2
File size                                : 809 MiB
Duration                                 : 27mn 14s
Overall bit rate mode                    : Variable
Overall bit rate                         : 4 151 Kbps
Movie name                               : Rescue ME! OAV
Encoded date                             : UTC 2014-04-15 13:14:44
Writing application                      : mkvmerge v6.7.0 ('Back to the Ground') 32bit built on Jan  8 2014 15:03:17
Writing library                          : libebml v1.3.0 + libmatroska v1.4.1
Attachment                               : Yes / Yes / Yes / Yes / Yes / Yes / Yes / Yes / Yes

Video
ID                                       : 1
Format                                   : AVC
Format/Info                              : Advanced Video Codec
Format profile                           : High [email protected]
Format settings, CABAC                   : Yes
Format settings, ReFrames                : 4 frames
Codec ID                                 : V_MPEG4/ISO/AVC
Duration                                 : 27mn 14s
Bit rate mode                            : Variable
Maximum bit rate                         : 150 Mbps
Width                                    : 1 920 pixels
Height                                   : 1 080 pixels
Display aspect ratio                     : 16:9
Frame rate mode                          : Constant
Frame rate                               : 23.976 fps
Color space                              : YUV
Chroma subsampling                       : 4:2:0
Bit depth                                : 10 bits
Scan type                                : Progressive
Writing library                          : x264 core 133 r2334 l-smash
Encoding settings                        : cabac=1 / ref=4 / deblock=1:0:0 / analyse=0x3:0x133 / me=umh / subme=11 / psy=1 / psy_rd=1.20:0.00 / mixed_ref=1 / me_range=32 / chroma_me=1 / trellis=2 / 8x8dct=1 / cqm=0 / deadzone=21,11 / fast_pskip=0 / chroma_qp_offset=-2 / threads=6 / lookahead_threads=1 / sliced_threads=0 / nr=0 / decimate=0 / interlaced=0 / bluray_compat=0 / constrained_intra=0 / bframes=3 / b_pyramid=2 / b_adapt=2 / b_bias=0 / direct=3 / weightb=1 / open_gop=0 / weightp=2 / keyint=240 / keyint_min=4 / scenecut=50 / intra_refresh=0 / rc_lookahead=60 / rc=crf / mbtree=1 / crf=17.0 / qcomp=0.65 / qpmin=0 / qpmax=81 / qpstep=12 / vbv_maxrate=150000 / vbv_bufsize=187500 / crf_max=0.0 / nal_hrd=vbr / ip_ratio=1.40 / aq=1:1.00
Language                                 : Japanese
Default                                  : Yes
Forced                                   : No
Color primaries                          : BT.709
Transfer characteristics                 : BT.709
Matrix coefficients                      : BT.709

Audio
ID                                       : 2
Format                                   : FLAC
Format/Info                              : Free Lossless Audio Codec
Codec ID                                 : A_FLAC
Duration                                 : 27mn 14s
Bit rate mode                            : Variable
Channel count                            : 2 channels
Sampling rate                            : 48.0 KHz
Bit depth                                : 16 bits
Writing library                          : Lavf52.78.0
Language                                 : Japanese
Default                                  : Yes
Forced                                   : No

Text
ID                                       : 3
Format                                   : ASS
Codec ID                                 : S_TEXT/ASS
Codec ID/Info                            : Advanced Sub Station Alpha
Compression mode                         : Lossless
Default                                  : Yes
Forced                                   : No

Menu
00:00:00.000                             : :Intro
00:01:47.148                             : :OP
00:03:00.722                             : :Episode
00:26:00.600                             : :ED

[/color]



download.png

Onlinestatus: Rapidgator
DCC44E049A.png
ddownload
9ADF822D8D.png

To view the content, you need to Sign In or Register.

 
Zuletzt bearbeitet: