Welcome to our Community
Wanting to join the rest of our members? Feel free to sign up today.
Sign up

Saekano the Movie: Finale | Saenai Heroine no Sodatekata Fine [Ger-Jap-Dub][Ger-Sub][720p|1080p][E-AC-3|DTS-HD][8bits|10bits][x264|x265|AV1][BluRay] - AO

Azugo

H͓̽u͓̽g͓̽o͓̽ ͓̽&͓̽ ͓̽A͓̽z͓̽u͓̽r͓̽a͓̽
Otaku Gott
Uploader
25 März 2020
3.189
24.363
113



Saekano the Movie: Finale | Saenai Heroine no Sodatekata Fine




qWkxIGC.png


SRXGgee.png

anisearch.com schrieb:
Der Weg ist zum Erfolg ist kein leichter gewesen, wie auch Tomoya Aki und sein Team bei der Fertigstellung ihres ersten Projekts merken mussten. Doch am Ende hat sich die Mühe gelohnt: Ihr Spiel erhielt jede Menge Lob und auch die Nachfrage war viel höher als erwartet. Doch während der Arbeiten an »How to Raise a Boring Girlfriend«, dem nächsten Spiel, kommt es für Tomoya richtig dick, denn sowohl Eriri als auch Utaha haben sein Team verlassen, um gemeinsam mit Akane Kousaka am 13. Teil der erfolgreichen Spielreihe »Field Chronicles« zu arbeiten.

Dank Megumi hat Tomoya nicht aufgegeben und konnte mit Izumi sogar einen adäquaten Ersatz für Eriri gewinnen, doch nun kommt er bei der Handlung des neuen Spiels partout nicht weiter. Als er sich Hilfe suchend an Utaha wenden will, muss er feststellen, dass auch sie und Eriri mit ihrem Projekt und den einhergehenden Abgabefristen zu kämpfen haben. Letztendlich erklärt sich Akane persönlich bereit, ihm zu helfen, doch ein Zwischenfall bringt alles durcheinander. Als Tomoya aufgrund seiner Hilfsbereitschaft erneut sein eigenes Team vernachlässigen will, stellt er Megumis Geduld auf eine harte Probe.

Anmerkung:
Der Film ist die letzte Anime-Umsetzung der Light-Novel-Vorlage und schließt auch die Geschichte ab.

Quelle: https://www.anisearch.de/anime/13083


t3RZ5BD.png


Spieldauer: ~115min
Genre: Romantische Komödie
Nebengenres: Harem
Jahr: 2019
Sprache:
Deutsch.png
Deutsch,
Japanisch.png
Japanisch
Untertitel:
Deutsch.png
Deutsch
Größe pro Folge: ~2420mb, ~4810mb ~6160mb, ~4270mb
Episodenanzahl: 01/01
Format: MKV
Auflösung: 720p (16:9), 1080p (16:9)
Videocodec: H264 (AVC), H265 (HEVC), AV1 (AOM)
Audiocodec: E-AC-3, DTS-HD
Releasegruppe: Anime Otakus
Hoster:
rapidgator-gif.30742
Rapidgator,
ddownload-gif.30720
ddownload


QTQOKDS.png

Code:
[color=Turquoise]File size                                : 2.42 GiB
Duration                                 : 1 h 54 min
Overall bit rate                         : 3 019 kb/s
Encoded date                             : UTC 2022-09-01 13:58:02
Writing application                      : mkvmerge v70.0.0 ('Caught A Lite Sneeze') 64-bit
Writing library                          : libebml v1.4.2 + libmatroska v1.6.4
Release by                               : Anime Otakus
Version                                  : 1.2

Video
ID                                       : 1
Format                                   : AVC
Format/Info                              : Advanced Video Codec
Format profile                           : [email protected]
Format settings                          : CABAC / 8 Ref Frames
Format settings, CABAC                   : Yes
Format settings, Reference frames        : 8 frames
Codec ID                                 : V_MPEG4/ISO/AVC
Duration                                 : 1 h 54 min
Bit rate                                 : 1 719 kb/s
Width                                    : 1 280 pixels
Height                                   : 720 pixels
Display aspect ratio                     : 16:9
Frame rate mode                          : Constant
Frame rate                               : 23.976 (24000/1001) FPS
Color space                              : YUV
Chroma subsampling                       : 4:2:0
Bit depth                                : 8 bits
Scan type                                : Progressive
Bits/(Pixel*Frame)                       : 0.078
Stream size                              : 1.38 GiB (57%)
Language                                 : English
Default                                  : No
Forced                                   : No
Color range                              : Limited
Color primaries                          : BT.709
Transfer characteristics                 : BT.709
Matrix coefficients                      : BT.709

Audio #1
ID                                       : 3
Format                                   : E-AC-3
Format/Info                              : Enhanced AC-3
Commercial name                          : Dolby Digital Plus
Codec ID                                 : A_EAC3
Duration                                 : 1 h 54 min
Bit rate mode                            : Constant
Bit rate                                 : 640 kb/s
Channel(s)                               : 2 channels
Channel layout                           : L R
Sampling rate                            : 48.0 kHz
Frame rate                               : 31.250 FPS (1536 SPF)
Bit depth                                : 32 bits
Compression mode                         : Lossy
Delay relative to video                  : -5 ms
Stream size                              : 526 MiB (21%)
Title                                    : Stereo
Language                                 : German
Service kind                             : Complete Main
Default                                  : Yes
Forced                                   : No

Audio #2
ID                                       : 4
Format                                   : E-AC-3
Format/Info                              : Enhanced AC-3
Commercial name                          : Dolby Digital Plus
Codec ID                                 : A_EAC3
Duration                                 : 1 h 54 min
Bit rate mode                            : Constant
Bit rate                                 : 640 kb/s
Channel(s)                               : 2 channels
Channel layout                           : L R
Sampling rate                            : 48.0 kHz
Frame rate                               : 31.250 FPS (1536 SPF)
Bit depth                                : 32 bits
Compression mode                         : Lossy
Delay relative to video                  : -5 ms
Stream size                              : 526 MiB (21%)
Title                                    : Stereo
Language                                 : Japanese
Service kind                             : Complete Main
Default                                  : No
Forced                                   : No

Text
ID                                       : 2
Format                                   : PGS
Muxing mode                              : zlib
Codec ID                                 : S_HDMV/PGS
Codec ID/Info                            : Picture based subtitle format used on BDs/HD-DVDs
Duration                                 : 1 h 52 min
Bit rate                                 : 47.6 kb/s
Frame rate                               : 0.379 FPS
Count of elements                        : 2568
Stream size                              : 38.5 MiB (2%)
Title                                    : German Full
Language                                 : German
Default                                  : No
Forced                                   : No

Menu
00:00:00.000                             : :Chapter 01
00:09:51.757                             : :Chapter 02
00:18:57.970                             : :Chapter 03
00:27:57.676                             : :Chapter 04
00:36:08.291                             : :Chapter 05
00:45:20.676                             : :Chapter 06
00:53:48.767                             : :Chapter 07
01:03:21.005                             : :Chapter 08
01:12:51.700                             : :Chapter 09
01:22:32.364                             : :Chapter 10
01:32:00.681                             : :Chapter 11
01:44:14.081                             : :Chapter 12

[/color]
Code:
[color=Turquoise]Format                                   : Matroska
Format version                           : Version 4
File size                                : 4.81 GiB
Duration                                 : 1 h 54 min
Overall bit rate mode                    : Variable
Overall bit rate                         : 6 003 kb/s
Encoded date                             : UTC 2022-09-01 13:55:07
Writing application                      : mkvmerge v70.0.0 ('Caught A Lite Sneeze') 64-bit
Writing library                          : libebml v1.4.2 + libmatroska v1.6.4
Release by                               : Anime Otakus
Version                                  : 1.2

Video
ID                                       : 1
Format                                   : AVC
Format/Info                              : Advanced Video Codec
Format profile                           : [email protected]
Format settings                          : CABAC / 12 Ref Frames
Format settings, CABAC                   : Yes
Format settings, Reference frames        : 12 frames
Codec ID                                 : V_MPEG4/ISO/AVC
Duration                                 : 1 h 54 min
Width                                    : 1 920 pixels
Height                                   : 1 080 pixels
Display aspect ratio                     : 16:9
Frame rate mode                          : Constant
Frame rate                               : 23.976 (24000/1001) FPS
Color space                              : YUV
Chroma subsampling                       : 4:2:0
Bit depth                                : 8 bits
Scan type                                : Progressive
Language                                 : English
Default                                  : No
Forced                                   : No
Color range                              : Limited
Color primaries                          : BT.709
Transfer characteristics                 : BT.709
Matrix coefficients                      : BT.709

Audio #1
ID                                       : 3
Format                                   : DTS XLL
Format/Info                              : Digital Theater Systems
Commercial name                          : DTS-HD Master Audio
Codec ID                                 : A_DTS
Duration                                 : 1 h 54 min
Bit rate mode                            : Variable
Channel(s)                               : 2 channels
Channel layout                           : L R
Sampling rate                            : 48.0 kHz
Frame rate                               : 93.750 FPS (512 SPF)
Bit depth                                : 16 bits
Compression mode                         : Lossless
Title                                    : Stereo
Language                                 : German
Default                                  : Yes
Forced                                   : No

Audio #2
ID                                       : 4
Format                                   : DTS XLL
Format/Info                              : Digital Theater Systems
Commercial name                          : DTS-HD Master Audio
Codec ID                                 : A_DTS
Duration                                 : 1 h 54 min
Bit rate mode                            : Variable
Channel(s)                               : 2 channels
Channel layout                           : L R
Sampling rate                            : 48.0 kHz
Frame rate                               : 93.750 FPS (512 SPF)
Bit depth                                : 16 bits
Compression mode                         : Lossless
Title                                    : Stereo
Language                                 : Japanese
Default                                  : No
Forced                                   : No

Text
ID                                       : 2
Format                                   : PGS
Muxing mode                              : zlib
Codec ID                                 : S_HDMV/PGS
Codec ID/Info                            : Picture based subtitle format used on BDs/HD-DVDs
Title                                    : German Full
Language                                 : German
Default                                  : No
Forced                                   : No

Menu
00:00:00.000                             : :Chapter 01
00:09:51.757                             : :Chapter 02
00:18:57.970                             : :Chapter 03
00:27:57.676                             : :Chapter 04
00:36:08.291                             : :Chapter 05
00:45:20.676                             : :Chapter 06
00:53:48.767                             : :Chapter 07
01:03:21.005                             : :Chapter 08
01:12:51.700                             : :Chapter 09
01:22:32.364                             : :Chapter 10
01:32:00.681                             : :Chapter 11
01:44:14.081                             : :Chapter 12

[/color]
Code:
[color=Turquoise]Format                                   : Matroska
Format version                           : Version 4
File size                                : 6.16 GiB
Duration                                 : 1 h 54 min
Overall bit rate mode                    : Variable
Overall bit rate                         : 7 686 kb/s
Encoded date                             : UTC 2022-09-01 13:56:24
Writing application                      : mkvmerge v70.0.0 ('Caught A Lite Sneeze') 64-bit
Writing library                          : libebml v1.4.2 + libmatroska v1.6.4
Release by                               : Anime Otakus
Version                                  : 1.2

Video
ID                                       : 1
Format                                   : HEVC
Format/Info                              : High Efficiency Video Coding
Format profile                           : Main [email protected]@Main
Codec ID                                 : V_MPEGH/ISO/HEVC
Duration                                 : 1 h 54 min
Width                                    : 1 920 pixels
Height                                   : 1 080 pixels
Display aspect ratio                     : 16:9
Frame rate mode                          : Constant
Frame rate                               : 23.976 (24000/1001) FPS
Color space                              : YUV
Chroma subsampling                       : 4:2:0 (Type 0)
Bit depth                                : 10 bits
Language                                 : English
Default                                  : No
Forced                                   : No
Color range                              : Limited
Color primaries                          : BT.709
Transfer characteristics                 : BT.709
Matrix coefficients                      : BT.709

Audio #1
ID                                       : 3
Format                                   : DTS XLL
Format/Info                              : Digital Theater Systems
Commercial name                          : DTS-HD Master Audio
Codec ID                                 : A_DTS
Duration                                 : 1 h 54 min
Bit rate mode                            : Variable
Channel(s)                               : 2 channels
Channel layout                           : L R
Sampling rate                            : 48.0 kHz
Frame rate                               : 93.750 FPS (512 SPF)
Bit depth                                : 16 bits
Compression mode                         : Lossless
Title                                    : Stereo
Language                                 : German
Default                                  : Yes
Forced                                   : No

Audio #2
ID                                       : 4
Format                                   : DTS XLL
Format/Info                              : Digital Theater Systems
Commercial name                          : DTS-HD Master Audio
Codec ID                                 : A_DTS
Duration                                 : 1 h 54 min
Bit rate mode                            : Variable
Channel(s)                               : 2 channels
Channel layout                           : L R
Sampling rate                            : 48.0 kHz
Frame rate                               : 93.750 FPS (512 SPF)
Bit depth                                : 16 bits
Compression mode                         : Lossless
Title                                    : Stereo
Language                                 : Japanese
Default                                  : No
Forced                                   : No

Text
ID                                       : 2
Format                                   : PGS
Muxing mode                              : zlib
Codec ID                                 : S_HDMV/PGS
Codec ID/Info                            : Picture based subtitle format used on BDs/HD-DVDs
Title                                    : German Full
Language                                 : German
Default                                  : No
Forced                                   : No

Menu
00:00:00.000                             : :Chapter 01
00:09:51.757                             : :Chapter 02
00:18:57.970                             : :Chapter 03
00:27:57.676                             : :Chapter 04
00:36:08.291                             : :Chapter 05
00:45:20.676                             : :Chapter 06
00:53:48.767                             : :Chapter 07
01:03:21.005                             : :Chapter 08
01:12:51.700                             : :Chapter 09
01:22:32.364                             : :Chapter 10
01:32:00.681                             : :Chapter 11
01:44:14.081                             : :Chapter 12

[/color]
Code:
[color=Turquoise]Format version                           : Version 4
File size                                : 4.27 GiB
Duration                                 : 1 h 54 min
Overall bit rate mode                    : Variable
Overall bit rate                         : 5 326 kb/s
Encoded date                             : UTC 2022-09-04 17:38:30
Writing application                      : mkvmerge v68.0.0 ('The Curtain') 64-bit
Writing library                          : libebml v1.4.2 + libmatroska v1.6.4
Release by                               : Anime Otakus
Version                                  : 1.1

Video
ID                                       : 1
Format                                   : AV1
Format/Info                              : AOMedia Video 1
Format profile                           : [email protected]
Codec ID                                 : V_AV1
Duration                                 : 1 h 54 min
Bit rate                                 : 3 287 kb/s
Width                                    : 1 920 pixels
Height                                   : 1 080 pixels
Display aspect ratio                     : 16:9
Frame rate mode                          : Constant
Frame rate                               : 23.976 (24000/1001) FPS
Color space                              : YUV
Chroma subsampling                       : 4:2:0
Bit depth                                : 10 bits
Bits/(Pixel*Frame)                       : 0.066
Stream size                              : 2.64 GiB (62%)
Default                                  : Yes
Forced                                   : No
Color range                              : Limited
Color primaries                          : BT.709
Transfer characteristics                 : BT.709
Matrix coefficients                      : BT.709

Audio #1
ID                                       : 2
Format                                   : DTS XLL
Format/Info                              : Digital Theater Systems
Commercial name                          : DTS-HD Master Audio
Codec ID                                 : A_DTS
Duration                                 : 1 h 54 min
Bit rate mode                            : Variable
Bit rate                                 : 988 kb/s
Channel(s)                               : 2 channels
Channel layout                           : L R
Sampling rate                            : 48.0 kHz
Frame rate                               : 93.750 FPS (512 SPF)
Bit depth                                : 16 bits
Compression mode                         : Lossless
Stream size                              : 812 MiB (19%)
Language                                 : German
Default                                  : Yes
Forced                                   : No

Audio #2
ID                                       : 3
Format                                   : DTS XLL
Format/Info                              : Digital Theater Systems
Commercial name                          : DTS-HD Master Audio
Codec ID                                 : A_DTS
Duration                                 : 1 h 54 min
Bit rate mode                            : Variable
Bit rate                                 : 1 029 kb/s
Channel(s)                               : 2 channels
Channel layout                           : L R
Sampling rate                            : 48.0 kHz
Frame rate                               : 93.750 FPS (512 SPF)
Bit depth                                : 16 bits
Compression mode                         : Lossless
Stream size                              : 845 MiB (19%)
Language                                 : Japanese
Default                                  : No
Forced                                   : No

Text
ID                                       : 4
Format                                   : PGS
Muxing mode                              : zlib
Codec ID                                 : S_HDMV/PGS
Codec ID/Info                            : Picture based subtitle format used on BDs/HD-DVDs
Duration                                 : 1 h 52 min
Bit rate                                 : 47.6 kb/s
Count of elements                        : 2568
Stream size                              : 38.5 MiB (1%)
Title                                    : German Full
Language                                 : German
Default                                  : No
Forced                                   : No

Menu
00:00:00.000                             : 00:00:00.000
00:09:51.757                             : 00:09:51.757
00:18:57.970                             : 00:18:57.970
00:27:57.676                             : 00:27:57.676
00:36:08.291                             : 00:36:08.291
00:45:20.676                             : 00:45:20.676
00:53:48.767                             : 00:53:48.767
01:03:21.005                             : 01:03:21.005
01:12:51.700                             : 01:12:51.700
01:22:32.364                             : 01:22:32.364
01:32:00.681                             : 01:32:00.681
01:44:14.081                             : 01:44:14.081

[/color]




p6tlRgE.png

fqfOvST.png

720p EAC3
E7DD19AC57.png

1080p DTS-HD
4860D528A3.png

x265 1080p DTS-HD
96A3B24BB5.png

AV1 1080p DTS-HD
F4DB2BE282.png


OQ7Exm0.png

720p EAC3
68F04F2925.png

1080p DTS-HD
468A78BEEA.png

x265 1080p DTS-HD
14A71A4F01.png

AV1 1080p DTS-HD
6C6DA18253.png


To view the content, you need to Sign In or Register.