Welcome to our Community
Wanting to join the rest of our members? Feel free to sign up today.
Sign up

Shakugan no Shana: Second [Ger-Jap-Dub][Ger-Fra-Sub][720p|1080p][E-AC-3|DTS-HD][8bits|10bits][x264|x265|AV1][BluRay] - AO

Kleinmike

Uploader
Otaku König
21 März 2021
285
4.758
93
Shakugan no Shana: Second
灼眼のシャナII | Shakugan no Shana II

4227.webp


Beschreibung:
Yuuji geht zur Schule und erlebt einen ganz normalen Sommerschulanfang. Sein letzter normaler Tag, nach dem sich alles ändern wird und nach dem nichts mehr so sein wird, wie zuvor …
Aber irgendwie kommt ihm das bekannt vor … Es ist September? Friagne der Jäger taucht zum ersten Mal auf? Shana erkennt ihn nicht? Seine Mutter kann ihm nicht sagen, wo sie Kaffee kauft? Was stimmt hier nicht?

Die Geschichte von Shakugan no Shana geht weiter … oder auch nicht …
Quelle: anisearch

Folgen: 24/24 + 04/04
Größe: ~940 MB, ~2.18 GB, ~2.34 GB, ~1.56 GB
Sprache: Japanisch | Deutsch
Untertitel: Deutsch | Französisch
Jahr: 2021
Genres: Action, Drama, Fantasy, Komödie, Romanze
Auflösung: 1920x1080
Format: MKV
Videocodec: AV1 (AOM), H264(AVC), H265(HVEC)
Farbtiefe: 8bit | 10bit
Audiocodec: DTS-HD | EAC3
Releaser: Anime Otakus
Publisher: FilmConfect GmbH & Co. KG
Hoster: DDownload | Rapdigator

Mediainfo:
Code:
Format                                   : Matroska
Format version                           : Version 4
File size                                : 940 MiB
Duration                                 : 24 min 15 s
Overall bit rate                         : 5 420 kb/s
Encoded date                             : UTC 2022-06-05 01:27:56
Writing application                      : mkvmerge v67.0.0 ('Under Stars') 64-bit
Writing library                          : libebml v1.4.2 + libmatroska v1.6.4
Release by                               : Anime Otakus
Version                                  : 1.2

Video
ID                                       : 1
Format                                   : AVC
Format/Info                              : Advanced Video Codec
Format profile                           : [email protected]
Format settings                          : CABAC / 8 Ref Frames
Format settings, CABAC                   : Yes
Format settings, Reference frames        : 8 frames
Codec ID                                 : V_MPEG4/ISO/AVC
Duration                                 : 24 min 15 s
Bit rate                                 : 4 032 kb/s
Width                                    : 1 280 pixels
Height                                   : 720 pixels
Display aspect ratio                     : 16:9
Frame rate mode                          : Constant
Frame rate                               : 23.976 (24000/1001) FPS
Color space                              : YUV
Chroma subsampling                       : 4:2:0
Bit depth                                : 8 bits
Scan type                                : Progressive
Bits/(Pixel*Frame)                       : 0.182
Stream size                              : 699 MiB (74%)
Language                                 : English
Default                                  : No
Forced                                   : No
Color range                              : Limited
Color primaries                          : BT.709
Transfer characteristics                 : BT.709
Matrix coefficients                      : BT.709

Audio #1
ID                                       : 5
Format                                   : E-AC-3
Format/Info                              : Enhanced AC-3
Commercial name                          : Dolby Digital Plus
Codec ID                                 : A_EAC3
Duration                                 : 24 min 15 s
Bit rate mode                            : Constant
Bit rate                                 : 640 kb/s
Channel(s)                               : 2 channels
Channel layout                           : L R
Sampling rate                            : 48.0 kHz
Frame rate                               : 31.250 FPS (1536 SPF)
Bit depth                                : 32 bits
Compression mode                         : Lossy
Delay relative to video                  : -5 ms
Stream size                              : 111 MiB (12%)
Title                                    : Stereo
Language                                 : German
Service kind                             : Complete Main
Default                                  : Yes
Forced                                   : No

Audio #2
ID                                       : 6
Format                                   : E-AC-3
Format/Info                              : Enhanced AC-3
Commercial name                          : Dolby Digital Plus
Codec ID                                 : A_EAC3
Duration                                 : 24 min 15 s
Bit rate mode                            : Constant
Bit rate                                 : 640 kb/s
Channel(s)                               : 2 channels
Channel layout                           : L R
Sampling rate                            : 48.0 kHz
Frame rate                               : 31.250 FPS (1536 SPF)
Bit depth                                : 32 bits
Compression mode                         : Lossy
Delay relative to video                  : -5 ms
Stream size                              : 111 MiB (12%)
Title                                    : Stereo
Language                                 : Japanese
Service kind                             : Complete Main
Default                                  : No
Forced                                   : No

Text #1
ID                                       : 2
Format                                   : PGS
Muxing mode                              : zlib
Codec ID                                 : S_HDMV/PGS
Codec ID/Info                            : Picture based subtitle format used on BDs/HD-DVDs
Title                                    : German Forced
Language                                 : German
Default                                  : Yes
Forced                                   : No

Text #2
ID                                       : 3
Format                                   : PGS
Muxing mode                              : zlib
Codec ID                                 : S_HDMV/PGS
Codec ID/Info                            : Picture based subtitle format used on BDs/HD-DVDs
Title                                    : German Full
Language                                 : German
Default                                  : No
Forced                                   : No

Text #3
ID                                       : 4
Format                                   : PGS
Muxing mode                              : zlib
Codec ID                                 : S_HDMV/PGS
Codec ID/Info                            : Picture based subtitle format used on BDs/HD-DVDs
Title                                    : Franzoesisch Full
Language                                 : French
Default                                  : No
Forced                                   : No

Menu
00:00:00.000                             : :Chapter 01
00:01:36.096                             : :Chapter 02
00:10:43.017                             : :Chapter 03
00:22:13.123                             : :Chapter 04
00:23:43.088                             : :Chapter 05
00:24:12.868                             : :Chapter 06
Code:
Format                                   : Matroska
Format version                           : Version 4
File size                                : 2.40 GiB
Duration                                 : 24 min 15 s
Overall bit rate mode                    : Variable
Overall bit rate                         : 14.2 Mb/s
Encoded date                             : UTC 2022-06-05 01:27:41
Writing application                      : mkvmerge v67.0.0 ('Under Stars') 64-bit
Writing library                          : libebml v1.4.2 + libmatroska v1.6.4
Release by                               : Anime Otakus
Version                                  : 1.2

Video
ID                                       : 1
Format                                   : HEVC
Format/Info                              : High Efficiency Video Coding
Format profile                           : [email protected]@Main
Codec ID                                 : V_MPEGH/ISO/HEVC
Duration                                 : 24 min 15 s
Width                                    : 1 920 pixels
Height                                   : 1 080 pixels
Display aspect ratio                     : 16:9
Frame rate mode                          : Constant
Frame rate                               : 23.976 (24000/1001) FPS
Color space                              : YUV
Chroma subsampling                       : 4:2:0 (Type 0)
Bit depth                                : 8 bits
Language                                 : English
Default                                  : No
Forced                                   : No
Color range                              : Limited
Color primaries                          : BT.709
Transfer characteristics                 : BT.709
Matrix coefficients                      : BT.709

Audio #1
ID                                       : 5
Format                                   : DTS XLL
Format/Info                              : Digital Theater Systems
Commercial name                          : DTS-HD Master Audio
Codec ID                                 : A_DTS
Duration                                 : 24 min 15 s
Bit rate mode                            : Variable
Channel(s)                               : 2 channels
Channel layout                           : L R
Sampling rate                            : 48.0 kHz
Frame rate                               : 93.750 FPS (512 SPF)
Bit depth                                : 16 bits
Compression mode                         : Lossless
Title                                    : Stereo
Language                                 : German
Default                                  : Yes
Forced                                   : No

Audio #2
ID                                       : 6
Format                                   : DTS XLL
Format/Info                              : Digital Theater Systems
Commercial name                          : DTS-HD Master Audio
Codec ID                                 : A_DTS
Duration                                 : 24 min 15 s
Bit rate mode                            : Variable
Channel(s)                               : 2 channels
Channel layout                           : L R
Sampling rate                            : 48.0 kHz
Frame rate                               : 93.750 FPS (512 SPF)
Bit depth                                : 16 bits
Compression mode                         : Lossless
Title                                    : Stereo
Language                                 : Japanese
Default                                  : No
Forced                                   : No

Text #1
ID                                       : 2
Format                                   : PGS
Muxing mode                              : zlib
Codec ID                                 : S_HDMV/PGS
Codec ID/Info                            : Picture based subtitle format used on BDs/HD-DVDs
Title                                    : German Forced
Language                                 : German
Default                                  : Yes
Forced                                   : No

Text #2
ID                                       : 3
Format                                   : PGS
Muxing mode                              : zlib
Codec ID                                 : S_HDMV/PGS
Codec ID/Info                            : Picture based subtitle format used on BDs/HD-DVDs
Title                                    : German Full
Language                                 : German
Default                                  : No
Forced                                   : No

Text #3
ID                                       : 4
Format                                   : PGS
Muxing mode                              : zlib
Codec ID                                 : S_HDMV/PGS
Codec ID/Info                            : Picture based subtitle format used on BDs/HD-DVDs
Title                                    : Franzoesisch Full
Language                                 : French
Default                                  : No
Forced                                   : No

Menu
00:00:00.000                             : :Chapter 01
00:01:36.096                             : :Chapter 02
00:10:43.017                             : :Chapter 03
00:22:13.123                             : :Chapter 04
00:23:43.088                             : :Chapter 05
00:24:12.868                             : :Chapter 06
Code:
Format                                   : Matroska
Format version                           : Version 4
File size                                : 2.40 GiB
Duration                                 : 24 min 15 s
Overall bit rate mode                    : Variable
Overall bit rate                         : 14.2 Mb/s
Encoded date                             : UTC 2022-06-05 01:27:41
Writing application                      : mkvmerge v67.0.0 ('Under Stars') 64-bit
Writing library                          : libebml v1.4.2 + libmatroska v1.6.4
Release by                               : Anime Otakus
Version                                  : 1.2

Video
ID                                       : 1
Format                                   : HEVC
Format/Info                              : High Efficiency Video Coding
Format profile                           : [email protected]@Main
Codec ID                                 : V_MPEGH/ISO/HEVC
Duration                                 : 24 min 15 s
Width                                    : 1 920 pixels
Height                                   : 1 080 pixels
Display aspect ratio                     : 16:9
Frame rate mode                          : Constant
Frame rate                               : 23.976 (24000/1001) FPS
Color space                              : YUV
Chroma subsampling                       : 4:2:0 (Type 0)
Bit depth                                : 8 bits
Language                                 : English
Default                                  : No
Forced                                   : No
Color range                              : Limited
Color primaries                          : BT.709
Transfer characteristics                 : BT.709
Matrix coefficients                      : BT.709

Audio #1
ID                                       : 5
Format                                   : DTS XLL
Format/Info                              : Digital Theater Systems
Commercial name                          : DTS-HD Master Audio
Codec ID                                 : A_DTS
Duration                                 : 24 min 15 s
Bit rate mode                            : Variable
Channel(s)                               : 2 channels
Channel layout                           : L R
Sampling rate                            : 48.0 kHz
Frame rate                               : 93.750 FPS (512 SPF)
Bit depth                                : 16 bits
Compression mode                         : Lossless
Title                                    : Stereo
Language                                 : German
Default                                  : Yes
Forced                                   : No

Audio #2
ID                                       : 6
Format                                   : DTS XLL
Format/Info                              : Digital Theater Systems
Commercial name                          : DTS-HD Master Audio
Codec ID                                 : A_DTS
Duration                                 : 24 min 15 s
Bit rate mode                            : Variable
Channel(s)                               : 2 channels
Channel layout                           : L R
Sampling rate                            : 48.0 kHz
Frame rate                               : 93.750 FPS (512 SPF)
Bit depth                                : 16 bits
Compression mode                         : Lossless
Title                                    : Stereo
Language                                 : Japanese
Default                                  : No
Forced                                   : No

Text #1
ID                                       : 2
Format                                   : PGS
Muxing mode                              : zlib
Codec ID                                 : S_HDMV/PGS
Codec ID/Info                            : Picture based subtitle format used on BDs/HD-DVDs
Title                                    : German Forced
Language                                 : German
Default                                  : Yes
Forced                                   : No

Text #2
ID                                       : 3
Format                                   : PGS
Muxing mode                              : zlib
Codec ID                                 : S_HDMV/PGS
Codec ID/Info                            : Picture based subtitle format used on BDs/HD-DVDs
Title                                    : German Full
Language                                 : German
Default                                  : No
Forced                                   : No

Text #3
ID                                       : 4
Format                                   : PGS
Muxing mode                              : zlib
Codec ID                                 : S_HDMV/PGS
Codec ID/Info                            : Picture based subtitle format used on BDs/HD-DVDs
Title                                    : Franzoesisch Full
Language                                 : French
Default                                  : No
Forced                                   : No

Menu
00:00:00.000                             : :Chapter 01
00:01:36.096                             : :Chapter 02
00:10:43.017                             : :Chapter 03
00:22:13.123                             : :Chapter 04
00:23:43.088                             : :Chapter 05
00:24:12.868                             : :Chapter 06
Code:
Format                                   : Matroska
Format version                           : Version 4
File size                                : 1.64 GiB
Duration                                 : 24 min 15 s
Overall bit rate mode                    : Variable
Overall bit rate                         : 9 664 kb/s
Encoded date                             : UTC 2022-06-03 17:53:46
Writing application                      : mkvmerge v67.0.0 ('Under Stars') 64-bit
Writing library                          : libebml v1.4.2 + libmatroska v1.6.4 / Lavf59.23.100
Released by                              : Anime Otakus
Version                                  : 1.1

Video
ID                                       : 1
Format                                   : AV1
Format/Info                              : AOMedia Video 1
Format profile                           : [email protected]
Codec ID                                 : V_AV1
Duration                                 : 24 min 14 s
Bit rate                                 : 6 203 kb/s
Width                                    : 1 920 pixels
Height                                   : 1 080 pixels
Display aspect ratio                     : 16:9
Frame rate mode                          : Constant
Frame rate                               : 23.976 (24000/1001) FPS
Color space                              : YUV
Chroma subsampling                       : 4:2:0
Bit depth                                : 10 bits
Bits/(Pixel*Frame)                       : 0.125
Stream size                              : 1.05 GiB (64%)
Default                                  : Yes
Forced                                   : No
Color range                              : Limited
Color primaries                          : BT.709
Transfer characteristics                 : BT.709
Matrix coefficients                      : BT.709

Audio #1
ID                                       : 2
Format                                   : DTS XLL
Format/Info                              : Digital Theater Systems
Commercial name                          : DTS-HD Master Audio
Codec ID                                 : A_DTS
Duration                                 : 24 min 15 s
Bit rate mode                            : Variable
Bit rate                                 : 1 708 kb/s
Channel(s)                               : 2 channels
Channel layout                           : L R
Sampling rate                            : 48.0 kHz
Frame rate                               : 93.750 FPS (512 SPF)
Bit depth                                : 16 bits
Compression mode                         : Lossless
Stream size                              : 296 MiB (18%)
Language                                 : German
Default                                  : Yes
Forced                                   : No

Audio #2
ID                                       : 3
Format                                   : DTS XLL
Format/Info                              : Digital Theater Systems
Commercial name                          : DTS-HD Master Audio
Codec ID                                 : A_DTS
Duration                                 : 24 min 15 s
Bit rate mode                            : Variable
Bit rate                                 : 1 719 kb/s
Channel(s)                               : 2 channels
Channel layout                           : L R
Sampling rate                            : 48.0 kHz
Frame rate                               : 93.750 FPS (512 SPF)
Bit depth                                : 16 bits
Compression mode                         : Lossless
Stream size                              : 298 MiB (18%)
Language                                 : Japanese
Default                                  : No
Forced                                   : No

Text #1
ID                                       : 4
Format                                   : PGS
Muxing mode                              : zlib
Codec ID                                 : S_HDMV/PGS
Codec ID/Info                            : Picture based subtitle format used on BDs/HD-DVDs
Duration                                 : 21 min 30 s
Bit rate                                 : 812 b/s
Count of elements                        : 14
Stream size                              : 128 KiB (0%)
Language                                 : German
Default                                  : Yes
Forced                                   : No

Text #2
ID                                       : 5
Format                                   : PGS
Muxing mode                              : zlib
Codec ID                                 : S_HDMV/PGS
Codec ID/Info                            : Picture based subtitle format used on BDs/HD-DVDs
Duration                                 : 22 min 17 s
Bit rate                                 : 35.5 kb/s
Count of elements                        : 592
Stream size                              : 5.66 MiB (0%)
Language                                 : German
Default                                  : No
Forced                                   : No

Text #3
ID                                       : 6
Format                                   : PGS
Muxing mode                              : zlib
Codec ID                                 : S_HDMV/PGS
Codec ID/Info                            : Picture based subtitle format used on BDs/HD-DVDs
Duration                                 : 22 min 17 s
Bit rate                                 : 32.6 kb/s
Count of elements                        : 592
Stream size                              : 5.19 MiB (0%)
Language                                 : French
Default                                  : No
Forced                                   : No

Menu #1
00:00:00.000                             : 00:00:00.000
00:01:36.096                             : 00:01:36.096
00:10:43.017                             : 00:10:43.017
00:22:13.123                             : 00:22:13.123
00:23:43.088                             : 00:23:43.088
00:24:12.868                             : 00:24:12.868

Menu #2
00:00:00.000                             : 00:00:00.000
00:01:36.096                             : 00:01:36.096
00:10:43.017                             : 00:10:43.017
00:22:13.123                             : 00:22:13.123
00:23:43.088                             : 00:23:43.088
00:24:12.868                             : 00:24:12.868
Status:
Rapdigator:
720p EAC3
E77CF5F7F6.png

1080p DTS-HD:
B85856ED83.png

x265 1080p DTS-HD:
184D89507C.png

AV1 1080p DTS-HD:
56BA51F5A6.png


DDownload:
720p EAC3
4BFD34F636.png

1080p DTS-HD:
035741A942.png

x265 1080p DTS-HD:
A6C08E2BD1.png

AV1 1080p DTS-HD:
F3138C8431.png


To view the content, you need to Sign In or Register.
 
Zuletzt bearbeitet: