Wir verwenden Cookies, um deinen Aufenthalt auf Animes.so möglichst angenehm gestalten zu können. Mehr erfahren

Shoumetsu Toshi | After Lost [Jap-Dub][Ger-Sub][720p|1080p][WebRip] - Wakanim

Dieses Thema im Forum "Download Archiv" wurde erstellt von Ta@, 12. Apr. 2019.

  1. Ta@

    Ta@ Erfahrener Otaku Otaku König

    Registriert seit:
    7. Juli 2016
    Beiträge:
    219
    Zustimmungen:
    18.439
    Shoumetsu Toshi
    Afterlost
    After Lost, Annihilated City, Everything in its Right Place

    [​IMG]
    [​IMG]

    Eines Tages verschwindet plötzlich eine Stadt. Takuya, ein professioneller Kurier und ein Einzelgänger, trifft auf Yuki, die einzige Überlebende der zerstörten Stadt. Die beiden folgen der Nachricht von Yukis Vater, der verschollen ist und gehen in die verschwundene Stadt Lost. Bald treffen die beiden auf unvorhergesehene Hindernisse, wobei die Realität für Yuki besonders schockierend ist. Vor ihnen liegen die Gefühle der Zurückgebliebenen, eine mysteriöse Gruppe, die aus dem Schatten heraus agiert und eine Verschwörung. Takuya und Yuki, die einst Fremde waren, können während der Reise ihre Bande vertiefen und das Geheimnis der verlorenen Stadt lüften.

    Folgen: 4/12
    Größe pro Folge: ~860 MB/~2655 MB
    Folgendauer: ~24 Min
    Releaser: Ta@
    Art: Lizenzrelease
    Sprache: Japanisch
    Untertitel: Deutsch
    Jahr: 2019
    Genres: Abenteuer, Action, Drama, Fantasy, Mystery
    Auflösung: 1280x720/1920x1080
    Format: MKV
    Quelle: WebRip
    Videocodec: x264
    Farbtiefe: 8Bit
    Audiocodec: AAC
    Publisher: Wakanim
    Hoster: Share-Online

    [​IMG]
    Code:
    General Complete name : [Ta@]AfterLost_01_[Web,720p,AAC].mkv Format : Matroska Format version : Version 4 File size : 860 MiB Duration : 23 min 39 s Overall bit rate : 5 082 kb/s Encoded date : UTC 2019-04-08 17:25:48 Writing application : mkvmerge v10.0.0 ('To Drown In You') 64bit Writing library : libebml v1.3.4 + libmatroska v1.4.5 Attachments : font.ttf Video ID : 1 Format : AVC Format/Info : Advanced Video Codec Format profile : High@L4.1 Format settings : CABAC / 9 Ref Frames Format settings, CABAC : Yes Format settings, RefFrames : 9 frames Codec ID : V_MPEG4/ISO/AVC Duration : 23 min 39 s Bit rate : 4 887 kb/s Width : 1 280 pixels Height : 720 pixels Display aspect ratio : 16:9 Frame rate mode : Constant Frame rate : 23.976 (24000/1001) FPS Color space : YUV Chroma subsampling : 4:2:0 Bit depth : 8 bits Scan type : Progressive Bits/(Pixel*Frame) : 0.221 Stream size : 827 MiB (96%) Writing library : x264 core 155 r2901 7d0ff22 Encoding settings : cabac=1 / ref=9 / deblock=1:1:1 / analyse=0x3:0x133 / me=umh / subme=10 / psy=1 / psy_rd=0.40:0.00 / mixed_ref=1 / me_range=24 / chroma_me=1 / trellis=2 / 8x8dct=1 / cqm=0 / deadzone=21,11 / fast_pskip=1 / chroma_qp_offset=-2 / threads=22 / lookahead_threads=5 / sliced_threads=0 / nr=0 / decimate=1 / interlaced=0 / bluray_compat=0 / constrained_intra=0 / bframes=10 / b_pyramid=2 / b_adapt=2 / b_bias=0 / direct=3 / weightb=1 / open_gop=0 / weightp=2 / keyint=250 / keyint_min=23 / scenecut=40 / intra_refresh=0 / rc_lookahead=60 / rc=crf / mbtree=1 / crf=14.0 / qcomp=0.60 / qpmin=0 / qpmax=69 / qpstep=4 / ip_ratio=1.40 / aq=1:0.60 Default : Yes Forced : No Audio ID : 2 Format : AAC LC Format/Info : Advanced Audio Codec Low Complexity Codec ID : A_AAC-2 Duration : 23 min 39 s Bit rate : 192 kb/s Channel(s) : 2 channels Channel layout : L R Sampling rate : 48.0 kHz Frame rate : 46.875 FPS (1024 SPF) Compression mode : Lossy Delay relative to video : -21 ms Stream size : 32.5 MiB (4%) Default : Yes Forced : No ​
    Code:
    General Complete name : [Ta@]AfterLost_01_[Web,1080p,AAC].mkv Format : Matroska Format version : Version 4 File size : 2.59 GiB Duration : 23 min 39 s Overall bit rate : 15.7 Mb/s Encoded date : UTC 2019-04-08 17:24:19 Writing application : mkvmerge v10.0.0 ('To Drown In You') 64bit Writing library : libebml v1.3.4 + libmatroska v1.4.5 Attachments : font.ttf Video ID : 1 Format : AVC Format/Info : Advanced Video Codec Format profile : High@L4.1 Format settings : CABAC / 4 Ref Frames Format settings, CABAC : Yes Format settings, RefFrames : 4 frames Codec ID : V_MPEG4/ISO/AVC Duration : 23 min 39 s Bit rate : 15.5 Mb/s Width : 1 920 pixels Height : 1 080 pixels Display aspect ratio : 16:9 Frame rate mode : Constant Frame rate : 23.976 (24000/1001) FPS Color space : YUV Chroma subsampling : 4:2:0 Bit depth : 8 bits Scan type : Progressive Bits/(Pixel*Frame) : 0.311 Stream size : 2.56 GiB (99%) Writing library : x264 core 155 r2901 7d0ff22 Encoding settings : cabac=1 / ref=4 / deblock=1:1:1 / analyse=0x3:0x133 / me=umh / subme=10 / psy=1 / psy_rd=0.40:0.00 / mixed_ref=1 / me_range=24 / chroma_me=1 / trellis=2 / 8x8dct=1 / cqm=0 / deadzone=21,11 / fast_pskip=1 / chroma_qp_offset=-2 / threads=24 / lookahead_threads=6 / sliced_threads=0 / nr=0 / decimate=1 / interlaced=0 / bluray_compat=0 / constrained_intra=0 / bframes=10 / b_pyramid=2 / b_adapt=2 / b_bias=0 / direct=3 / weightb=1 / open_gop=0 / weightp=2 / keyint=250 / keyint_min=23 / scenecut=40 / intra_refresh=0 / rc_lookahead=60 / rc=crf / mbtree=1 / crf=12.0 / qcomp=0.60 / qpmin=0 / qpmax=69 / qpstep=4 / ip_ratio=1.40 / aq=1:0.60 Default : Yes Forced : No Audio ID : 2 Format : AAC LC Format/Info : Advanced Audio Codec Low Complexity Codec ID : A_AAC-2 Duration : 23 min 39 s Bit rate : 192 kb/s Channel(s) : 2 channels Channel layout : L R Sampling rate : 48.0 kHz Frame rate : 46.875 FPS (1024 SPF) Compression mode : Lossy Delay relative to video : -21 ms Stream size : 32.5 MiB (1%) Default : Yes Forced : No ​

    Anmerkung:
    Die Untertitel sind im Video eingebrannt.

    720p:[​IMG]1080p:[​IMG]

    Geschützter Bereich
    Registriere dich oder logge dich ein, um den Inhalt sehen zu können
     
    Zuletzt bearbeitet: 2. Mai 2019
    Gromm, SatoshiKon, tokyodrift und 20 anderen gefällt das.
  2. Tomoya

    Tomoya Kleiner Experte Otaku Experte

    Registriert seit:
    16. Juni 2013
    Beiträge:
    60
    Zustimmungen:
    1.403
    Shoumetsu Toshi | AfterLost | 消滅都市

    [​IMG]

    [​IMG]
    Eines Tages verschwindet plötzlich eine Stadt. Takuya, ein professioneller Kurier und ein Einzelgänger, trifft auf Yuki, die einzige Überlebende der zerstörten Stadt. Die beiden folgen der Nachricht von Yukis Vater, der verschollen ist und gehen in die verschwundene Stadt Lost.

    Bald treffen die beiden auf unvorhergesehene Hindernisse, wobei die Realität für Yuki besonders schockierend ist. Vor ihnen liegen die Gefühle der Zurückgebliebenen, eine mysteriöse Gruppe, die aus dem Schatten heraus agiert und eine Verschwörung. Takuya und Yuki, die einst Fremde waren, können während der Reise ihre Bande vertiefen und das Geheimnis der verlorenen Stadt lüften.


    Sprache: Japanisch
    Untertitel: Deutsch
    Episoden: 12/12
    Auflösung: 1920x1080p

    Dauer pro Folge: 23 Minuten
    Genres: Action, Adventure, Fanatsy, Mytsery, Drama
    Jahr: 2019

    Format: MKV
    Quelle: WebRip
    Videocodec: H.264
    Audiocodec: AAC
    Größe pro Folge: 2GB bis zu 4GB

    Releasegruppe: Wakanim | Ta@
    Hoster: Share-Online

    [​IMG]
    General
    Complete name : [TSP]Shoumetsu Toshi 01 GerSub [WebRip,1080p,AAC].mkv
    Format : Matroska
    Format version : Version 4 / Version 2
    File size : 2.59 GiB
    Duration : 23 min 39 s
    Overall bit rate : 15.7 Mb/s
    Encoded date : UTC 2019-04-08 17:24:19
    Writing application : mkvmerge v10.0.0 ('To Drown In You') 64bit
    Writing library : libebml v1.3.4 + libmatroska v1.4.5
    Attachments : font.ttf

    Video
    ID : 1
    Format : AVC
    Format/Info : Advanced Video Codec
    Format profile : High@L4.1
    Format settings, CABAC : Yes
    Format settings, RefFrames : 4 frames
    Codec ID : V_MPEG4/ISO/AVC
    Duration : 23 min 39 s
    Bit rate : 15.5 Mb/s
    Width : 1 920 pixels
    Height : 1 080 pixels
    Display aspect ratio : 16:9
    Frame rate mode : Constant
    Frame rate : 23.976 (24000/1001) FPS
    Color space : YUV
    Chroma subsampling : 4:2:0
    Bit depth : 8 bits
    Scan type : Progressive
    Bits/(Pixel*Frame) : 0.311
    Stream size : 2.56 GiB (99%)
    Writing library : x264 core 155 r2901 7d0ff22
    Encoding settings : cabac=1 / ref=4 / deblock=1:1:1 / analyse=0x3:0x133 / me=umh / subme=10 / psy=1 / psy_rd=0.40:0.00 / mixed_ref=1 / me_range=24 / chroma_me=1 / trellis=2 / 8x8dct=1 / cqm=0 / deadzone=21,11 / fast_pskip=1 / chroma_qp_offset=-2 / threads=24 / lookahead_threads=6 / sliced_threads=0 / nr=0 / decimate=1 / interlaced=0 / bluray_compat=0 / constrained_intra=0 / bframes=10 / b_pyramid=2 / b_adapt=2 / b_bias=0 / direct=3 / weightb=1 / open_gop=0 / weightp=2 / keyint=250 / keyint_min=23 / scenecut=40 / intra_refresh=0 / rc_lookahead=60 / rc=crf / mbtree=1 / crf=12.0 / qcomp=0.60 / qpmin=0 / qpmax=69 / qpstep=4 / ip_ratio=1.40 / aq=1:0.60
    Default : Yes
    Forced : No

    Audio
    ID : 2
    Format : AAC
    Format/Info : Advanced Audio Codec
    Format profile : LC
    Codec ID : A_AAC
    Duration : 23 min 39 s
    Bit rate : 192 kb/s
    Channel(s) : 2 channels
    Channel positions : Front: L R
    Sampling rate : 48.0 kHz
    Frame rate : 46.875 FPS (1024 SPF)
    Compression mode : Lossy
    Delay relative to video : -21 ms
    Stream size : 32.5 MiB (1%)
    Default : Yes
    Forced : No





    Hinweiß: Der Releaser aller vorhanden Folgen meines hier bereitgestellten Uploads ist Ta@,
    der Episodentitel wurde von mir geändert weil ich die Formatirung so bei mir nutze, und [TSP] wurde hinzugefügt um sie bei mir als Uploads zu deklarieren.
    Alle neue Folgen werden nicht mehr dieses Kürzel tragen wenn sie nicht von mir kommen.

    Status: 1080p [​IMG]

    Geschützter Bereich
    Registriere dich oder logge dich ein, um den Inhalt sehen zu können
     
    Zuletzt bearbeitet: 6. Juli 2019
  3. Tomoya

    Tomoya Kleiner Experte Otaku Experte

    Registriert seit:
    16. Juni 2013
    Beiträge:
    60
    Zustimmungen:
    1.403
    Folge 12 Online
    ~Die Serie ist mit Folge 12 Abgeschlossen~
     

Diese Seite empfehlen