Welcome to our Community
Wanting to join the rest of our members? Feel free to sign up today.
Sign up

Sirius the Jaeger [Ger-Eng-Jap-Dub][Ger-Eng-Sub][720p|1080p][Web-DL] - Netflix

Azugo

H͓̽u͓̽g͓̽o͓̽ ͓̽&͓̽ ͓̽A͓̽z͓̽u͓̽r͓̽a͓̽
Otaku Gott
Uploader
25 März 2020
3.568
35.130
118


Sirius the Jaeger




13502_300.webp



oie_bchbujbgr3vm-png.30595

anisearch.de schrieb:
Im Jahre 1930 marschierte eine seltsame Gruppe von Leuten durch den Bahnhof in Tokio. Sie trugen alle einen Instrumentenkoffer mit sich herum und wurden als »Jäger« bezeichnet, denn sie machen Jagd auf Vampire. Unter all diesen Leuten befindet sich ein junger Mann namens Yuliy, ein Werwolf, dessen Dorf von den Vampiren zerstört wurde. Zusammen führen sie einen erbitterten Kampf um ein heiliges Objekt, die »Lade des Sirius«. Doch was hat es damit auf sich und wer wird den Kampf schlussendlich gewinnen?

Quelle: anisearch.de/anime/13502



oie_bchbujbgr3vm1-png.30596


Spieldauer: ~24 min
Genre: Actiondrama
Nebengenres: Abenteuer, Action, Drama, Fantasy, Mystery
Sprache:
Deutsch.png
Deutsch,
Japanisch.png
Japanisch,
Englisch.png
Englisch
Untertitel:
Deutsch.png
Deutsch,
Deutsch.png
Deutsch (Forced),
Englisch.png
Englisch,
Englisch.png
Englisch (Forced)
Größe pro Folge: ~304mb, ~682mb
Episodenanzahl: 12/12
Format: MKV
Auflösung: 720p (16:9), 1080p (16:9)
Videocodec: H264 (AVC)
Audiocodec: E-AC-3
Releasegruppe: AO
Hoster:
rapidgator-gif.30742
Rapidgator,
ddownload-gif.30720
ddownload


oie_bchbujbgr3vm2-png.30597

Rich (BBCode):

Format                                   : Matroska
Format version                           : Version 4
File size                                : 304 MiB
Duration                                 : 25 min 5 s
Overall bit rate mode                    : Variable
Overall bit rate                         : 1 695 kb/s
Encoded date                             : UTC 2023-01-25 16:39:27
Writing application                      : mkvmerge v73.0.0 ('25 or 6 to 4') 64-bit
Writing library                          : libebml v1.4.4 + libmatroska v1.7.1

Video
ID                                       : 1
Format                                   : AVC
Format/Info                              : Advanced Video Codec
Format profile                           : [email protected]
Format settings                          : CABAC / 3 Ref Frames
Format settings, CABAC                   : Yes
Format settings, Reference frames        : 3 frames
Codec ID                                 : V_MPEG4/ISO/AVC
Duration                                 : 25 min 5 s
Bit rate mode                            : Variable
Bit rate                                 : 1 330 kb/s
Maximum bit rate                         : 1 995 kb/s
Width                                    : 1 280 pixels
Height                                   : 720 pixels
Display aspect ratio                     : 16:9
Frame rate mode                          : Constant
Frame rate                               : 23.976 (24000/1001) FPS
Color space                              : YUV
Chroma subsampling                       : 4:2:0
Bit depth                                : 8 bits
Scan type                                : Progressive
Bits/(Pixel*Frame)                       : 0.060
Stream size                              : 235 MiB (77%)
Writing library                          : x264 core 148 r2727 7d026e8
Encoding settings                        : cabac=1 / ref=3 / deblock=1:0:0 / analyse=0x1:0x111 / me=umh / subme=10 / psy=1 / psy_rd=1.00:0.00 / mixed_ref=1 / me_range=24 / chroma_me=1 / trellis=2 / 8x8dct=0 / cqm=0 / deadzone=21,11 / fast_pskip=1 / chroma_qp_offset=-2 / threads=8 / lookahead_threads=1 / sliced_threads=0 / nr=0 / decimate=1 / interlaced=0 / bluray_compat=0 / stitchable=1 / constrained_intra=0 / bframes=2 / b_pyramid=0 / b_adapt=2 / b_bias=0 / direct=3 / weightb=1 / open_gop=0 / weightp=2 / keyint=250 / keyint_min=23 / scenecut=0 / intra_refresh=0 / rc_lookahead=48 / rc=2pass / mbtree=1 / bitrate=1330 / ratetol=1.0 / qcomp=0.50 / qpmin=6 / qpmax=51 / qpstep=4 / cplxblur=20.0 / qblur=0.5 / vbv_maxrate=1995 / vbv_bufsize=2660 / nal_hrd=vbr / filler=0 / ip_ratio=1.40 / aq=1:1.00
Language                                 : Japanese
Default                                  : Yes
Forced                                   : No

Audio #1
ID                                       : 2
Format                                   : E-AC-3
Format/Info                              : Enhanced AC-3
Commercial name                          : Dolby Digital Plus
Codec ID                                 : A_EAC3
Duration                                 : 25 min 5 s
Bit rate mode                            : Constant
Bit rate                                 : 128 kb/s
Channel(s)                               : 2 channels
Channel layout                           : L R
Sampling rate                            : 48.0 kHz
Frame rate                               : 31.250 FPS (1536 SPF)
Compression mode                         : Lossy
Stream size                              : 23.0 MiB (8%)
Language                                 : German
Service kind                             : Complete Main
Default                                  : Yes
Forced                                   : No

Audio #2
ID                                       : 3
Format                                   : E-AC-3
Format/Info                              : Enhanced AC-3
Commercial name                          : Dolby Digital Plus
Codec ID                                 : A_EAC3
Duration                                 : 25 min 5 s
Bit rate mode                            : Constant
Bit rate                                 : 128 kb/s
Channel(s)                               : 2 channels
Channel layout                           : L R
Sampling rate                            : 48.0 kHz
Frame rate                               : 31.250 FPS (1536 SPF)
Compression mode                         : Lossy
Stream size                              : 23.0 MiB (8%)
Language                                 : English
Service kind                             : Complete Main
Default                                  : No
Forced                                   : No

Audio #3
ID                                       : 4
Format                                   : E-AC-3
Format/Info                              : Enhanced AC-3
Commercial name                          : Dolby Digital Plus
Codec ID                                 : A_EAC3
Duration                                 : 25 min 5 s
Bit rate mode                            : Constant
Bit rate                                 : 128 kb/s
Channel(s)                               : 2 channels
Channel layout                           : L R
Sampling rate                            : 48.0 kHz
Frame rate                               : 31.250 FPS (1536 SPF)
Compression mode                         : Lossy
Stream size                              : 23.0 MiB (8%)
Language                                 : Japanese
Service kind                             : Complete Main
Default                                  : No
Forced                                   : No

Text #1
ID                                       : 5
Format                                   : UTF-8
Codec ID                                 : S_TEXT/UTF8
Codec ID/Info                            : UTF-8 Plain Text
Duration                                 : 24 min 21 s
Bit rate                                 : 0 b/s
Count of elements                        : 4
Stream size                              : 113 Bytes (0%)
Title                                    : Forced
Language                                 : German
Default                                  : Yes
Forced                                   : Yes

Text #2
ID                                       : 6
Format                                   : UTF-8
Codec ID                                 : S_TEXT/UTF8
Codec ID/Info                            : UTF-8 Plain Text
Duration                                 : 24 min 21 s
Bit rate                                 : 51 b/s
Count of elements                        : 291
Stream size                              : 9.15 KiB (0%)
Language                                 : German
Default                                  : No
Forced                                   : No

Text #3
ID                                       : 7
Format                                   : UTF-8
Codec ID                                 : S_TEXT/UTF8
Codec ID/Info                            : UTF-8 Plain Text
Duration                                 : 24 min 21 s
Bit rate                                 : 0 b/s
Count of elements                        : 5
Stream size                              : 128 Bytes (0%)
Title                                    : Forced
Language                                 : English
Default                                  : No
Forced                                   : Yes

Text #4
ID                                       : 8
Format                                   : UTF-8
Codec ID                                 : S_TEXT/UTF8
Codec ID/Info                            : UTF-8 Plain Text
Duration                                 : 24 min 21 s
Bit rate                                 : 59 b/s
Count of elements                        : 297
Stream size                              : 10.6 KiB (0%)
Language                                 : English
Default                                  : No
Forced                                   : No
Rich (BBCode):

Format                                   : Matroska
Format version                           : Version 4
File size                                : 682 MiB
Duration                                 : 25 min 5 s
Overall bit rate mode                    : Variable
Overall bit rate                         : 3 800 kb/s
Encoded date                             : UTC 2023-01-25 16:51:33
Writing application                      : mkvmerge v73.0.0 ('25 or 6 to 4') 64-bit
Writing library                          : libebml v1.4.4 + libmatroska v1.7.1

Video
ID                                       : 1
Format                                   : AVC
Format/Info                              : Advanced Video Codec
Format profile                           : Main@L4
Format settings                          : CABAC / 3 Ref Frames
Format settings, CABAC                   : Yes
Format settings, Reference frames        : 3 frames
Codec ID                                 : V_MPEG4/ISO/AVC
Duration                                 : 25 min 5 s
Bit rate mode                            : Variable
Bit rate                                 : 3 480 kb/s
Maximum bit rate                         : 5 220 kb/s
Width                                    : 1 920 pixels
Height                                   : 1 080 pixels
Display aspect ratio                     : 16:9
Frame rate mode                          : Constant
Frame rate                               : 23.976 (24000/1001) FPS
Color space                              : YUV
Chroma subsampling                       : 4:2:0
Bit depth                                : 8 bits
Scan type                                : Progressive
Bits/(Pixel*Frame)                       : 0.070
Stream size                              : 613 MiB (90%)
Writing library                          : x264 core 148 r2727 7d026e8
Encoding settings                        : cabac=1 / ref=3 / deblock=1:0:0 / analyse=0x1:0x111 / me=umh / subme=10 / psy=1 / psy_rd=1.00:0.00 / mixed_ref=1 / me_range=24 / chroma_me=1 / trellis=2 / 8x8dct=0 / cqm=0 / deadzone=21,11 / fast_pskip=1 / chroma_qp_offset=-2 / threads=8 / lookahead_threads=1 / sliced_threads=0 / nr=0 / decimate=1 / interlaced=0 / bluray_compat=0 / stitchable=1 / constrained_intra=0 / bframes=2 / b_pyramid=0 / b_adapt=2 / b_bias=0 / direct=3 / weightb=1 / open_gop=0 / weightp=2 / keyint=250 / keyint_min=23 / scenecut=0 / intra_refresh=0 / rc_lookahead=48 / rc=2pass / mbtree=1 / bitrate=3480 / ratetol=1.0 / qcomp=0.50 / qpmin=6 / qpmax=51 / qpstep=4 / cplxblur=20.0 / qblur=0.5 / vbv_maxrate=5220 / vbv_bufsize=6960 / nal_hrd=vbr / filler=0 / ip_ratio=1.40 / aq=1:1.00
Language                                 : Japanese
Default                                  : Yes
Forced                                   : No

Audio #1
ID                                       : 2
Format                                   : E-AC-3
Format/Info                              : Enhanced AC-3
Commercial name                          : Dolby Digital Plus
Codec ID                                 : A_EAC3
Duration                                 : 25 min 5 s
Bit rate mode                            : Constant
Bit rate                                 : 128 kb/s
Channel(s)                               : 2 channels
Channel layout                           : L R
Sampling rate                            : 48.0 kHz
Frame rate                               : 31.250 FPS (1536 SPF)
Compression mode                         : Lossy
Stream size                              : 23.0 MiB (3%)
Language                                 : German
Service kind                             : Complete Main
Default                                  : Yes
Forced                                   : No

Audio #2
ID                                       : 3
Format                                   : E-AC-3
Format/Info                              : Enhanced AC-3
Commercial name                          : Dolby Digital Plus
Codec ID                                 : A_EAC3
Duration                                 : 25 min 5 s
Bit rate mode                            : Constant
Bit rate                                 : 128 kb/s
Channel(s)                               : 2 channels
Channel layout                           : L R
Sampling rate                            : 48.0 kHz
Frame rate                               : 31.250 FPS (1536 SPF)
Compression mode                         : Lossy
Stream size                              : 23.0 MiB (3%)
Language                                 : English
Service kind                             : Complete Main
Default                                  : No
Forced                                   : No

Audio #3
ID                                       : 4
Format                                   : E-AC-3
Format/Info                              : Enhanced AC-3
Commercial name                          : Dolby Digital Plus
Codec ID                                 : A_EAC3
Duration                                 : 25 min 5 s
Bit rate mode                            : Constant
Bit rate                                 : 128 kb/s
Channel(s)                               : 2 channels
Channel layout                           : L R
Sampling rate                            : 48.0 kHz
Frame rate                               : 31.250 FPS (1536 SPF)
Compression mode                         : Lossy
Stream size                              : 23.0 MiB (3%)
Language                                 : Japanese
Service kind                             : Complete Main
Default                                  : No
Forced                                   : No

Text #1
ID                                       : 5
Format                                   : UTF-8
Codec ID                                 : S_TEXT/UTF8
Codec ID/Info                            : UTF-8 Plain Text
Duration                                 : 24 min 21 s
Bit rate                                 : 0 b/s
Count of elements                        : 4
Stream size                              : 113 Bytes (0%)
Title                                    : Forced
Language                                 : German
Default                                  : Yes
Forced                                   : Yes

Text #2
ID                                       : 6
Format                                   : UTF-8
Codec ID                                 : S_TEXT/UTF8
Codec ID/Info                            : UTF-8 Plain Text
Duration                                 : 24 min 21 s
Bit rate                                 : 51 b/s
Count of elements                        : 291
Stream size                              : 9.15 KiB (0%)
Language                                 : German
Default                                  : No
Forced                                   : No

Text #3
ID                                       : 7
Format                                   : UTF-8
Codec ID                                 : S_TEXT/UTF8
Codec ID/Info                            : UTF-8 Plain Text
Duration                                 : 24 min 21 s
Bit rate                                 : 0 b/s
Count of elements                        : 5
Stream size                              : 128 Bytes (0%)
Title                                    : Forced
Language                                 : English
Default                                  : No
Forced                                   : Yes

Text #4
ID                                       : 8
Format                                   : UTF-8
Codec ID                                 : S_TEXT/UTF8
Codec ID/Info                            : UTF-8 Plain Text
Duration                                 : 24 min 21 s
Bit rate                                 : 59 b/s
Count of elements                        : 297
Stream size                              : 10.6 KiB (0%)
Language                                 : English
Default                                  : No
Forced                                   : No



oie_bchbujbgr3vm3-png.30598

cooltext396117611400625-png.30739

D6A590EC14.png

cooltext3961176114006251-png.30741

124887A601.png

To view the content, you need to Sign In or Register.