1. Aktuell funktioniert unser Image Proxy nicht mehr ordnungsgemäß, sodass keine Bilder mehr angezeigt werden. Wir kümmern uns darum!

Wir verwenden Cookies, um deinen Aufenthalt auf Animes.so möglichst angenehm gestalten zu können. Mehr erfahren

Super Cub [Laufend][JapDub][GerSub][720p|1080p][Web-DL] - Crunchyroll

Dieses Thema im Forum "Anime Serien (Deutsche Untertitel)" wurde erstellt von Tanuki, 15. Apr. 2021.

  1. Tanuki
    Tanuki

    Uploader Otaku Experte

    Registriert seit:
    7. Juli 2016
    Beiträge:
    88
    Zustimmungen:
    18.692
    Super Cub

    [​IMG]
    [​IMG]

    Koguma lebt in Yamanashi und besucht das zweite Jahr der Oberschule. Eltern hat sie keine mehr, noch einen wirklichen Freundeskreis und so ist ihr tägliches Leben eher trostlos. Eines Tages kauft Koguma sich ein gebrauchtes Honda-Super-Cub-Motorrad und fährt seitdem jeden Tag mit diesem zur Schule. Wenn Koguma kleine Umwege fährt oder ihr das Benzin ausgeht, werden daraus schnell kleine Abenteuer.Mit dieser Veränderung in ihren Leben ist sie schon sehr zufrieden. Als sie dann auch noch von ihrer Klassenkameradin Reiko angesprochen wird, die ihr erzählt, dass auch sie mit dem Motorrad zur Schule fährt, beginnt sich die Welt des einsamen Mädchens langsam zu verändern, was Koguma neue Freundschaften und einen neuen Alltag beschert. Quelle: www.anisearch.de/anime/14738

    Folgen: 3/12
    Größe pro Folge: ~713 MB/~1399 MB
    Folgendauer: ~24 Min
    Releaser: Tanuki
    Art: Lizenzrelease
    Sprache: Japanisch
    Untertitel: Deutsch
    Jahr: 2021
    Genres: Alltagsleben, Komödie
    Auflösung: 1280x720/1920x1080
    Format: MKV
    Quelle: Web-DL
    Videocodec: x264
    Farbtiefe: 8Bit
    Audiocodec: AAC
    Publisher: LEONINE Anime
    Hoster: Uploaded, ddownload

    [​IMG]
    Code:
    General Unique ID : 286923799888154742778546402851606654425 (0xD7DB838825C62C710743B940F5EE6DD9) Complete name : Super.Cub.E01.GerSub.AAC.720p.Web-DL.x264-Tanuki.mkv Format : Matroska Format version : Version 4 File size : 713 MiB Duration : 24 min 9 s Overall bit rate : 4 126 kb/s Encoded date : UTC 2021-04-17 10:27:59 Writing application : mkvmerge v19.0.0 ('Brave Captain') 64-bit Writing library : libebml v1.3.5 + libmatroska v1.4.8 Attachments : font.ttf Video ID : 1 Format : AVC Format/Info : Advanced Video Codec Format profile : High@L4 Format settings : CABAC / 6 Ref Frames Format settings, CABAC : Yes Format settings, Reference frames : 6 frames Codec ID : V_MPEG4/ISO/AVC Duration : 24 min 9 s Bit rate : 4 000 kb/s Width : 1 280 pixels Height : 720 pixels Display aspect ratio : 16:9 Frame rate mode : Constant Frame rate : 23.976 (24000/1001) FPS Color space : YUV Chroma subsampling : 4:2:0 Bit depth : 8 bits Scan type : Progressive Bits/(Pixel*Frame) : 0.181 Stream size : 691 MiB (97%) Writing library : x264 core 142 Encoding settings : cabac=1 / ref=6 / deblock=1:1:1 / analyse=0x3:0x113 / me=umh / subme=8 / psy=1 / psy_rd=0.40:0.00 / mixed_ref=1 / me_range=16 / chroma_me=1 / trellis=1 / 8x8dct=1 / cqm=0 / deadzone=21,11 / fast_pskip=1 / chroma_qp_offset=-2 / threads=10 / lookahead_threads=1 / sliced_threads=0 / nr=0 / decimate=1 / interlaced=0 / bluray_compat=0 / constrained_intra=0 / bframes=0 / weightp=2 / keyint=96 / keyint_min=48 / scenecut=40 / intra_refresh=0 / rc_lookahead=48 / rc=2pass / mbtree=1 / bitrate=4000 / ratetol=1.0 / qcomp=0.60 / qpmin=0 / qpmax=69 / qpstep=4 / cplxblur=20.0 / qblur=0.5 / vbv_maxrate=6000 / vbv_bufsize=9000 / nal_hrd=none / filler=0 / ip_ratio=1.40 / aq=1:0.60 Default : Yes Forced : No Audio ID : 2 Format : AAC LC Format/Info : Advanced Audio Codec Low Complexity Codec ID : A_AAC-2 Duration : 24 min 9 s Bit rate : 128 kb/s Channel(s) : 2 channels Channel layout : L R Sampling rate : 44.1 kHz Frame rate : 43.066 FPS (1024 SPF) Compression mode : Lossy Stream size : 22.1 MiB (3%) Language : Japanese Default : Yes Forced : No Text ID : 3 Format : ASS Codec ID : S_TEXT/ASS Codec ID/Info : Advanced Sub Station Alpha Duration : 23 min 58 s Bit rate : 101 b/s Count of elements : 176 Compression mode : Lossless Stream size : 17.8 KiB (0%) Language : German Default : Yes Forced : No ​
    Code:
    General Unique ID : 253653731671533618231047718803396722543 (0xBED3EE8610C47EA84F3175623C0D7F6F) Complete name : Super.Cub.E01.GerSub.AAC.1080p.Web-DL.x264-Tanuki.mkv Format : Matroska Format version : Version 4 File size : 1.37 GiB Duration : 24 min 9 s Overall bit rate : 8 098 kb/s Encoded date : UTC 2021-04-17 10:27:56 Writing application : mkvmerge v19.0.0 ('Brave Captain') 64-bit Writing library : libebml v1.3.5 + libmatroska v1.4.8 Attachments : font.ttf Video ID : 1 Format : AVC Format/Info : Advanced Video Codec Format profile : High@L4 Format settings : CABAC / 4 Ref Frames Format settings, CABAC : Yes Format settings, Reference frames : 4 frames Codec ID : V_MPEG4/ISO/AVC Duration : 24 min 9 s Bit rate : 8 000 kb/s Width : 1 920 pixels Height : 1 080 pixels Display aspect ratio : 16:9 Frame rate mode : Constant Frame rate : 23.976 (24000/1001) FPS Color space : YUV Chroma subsampling : 4:2:0 Bit depth : 8 bits Scan type : Progressive Bits/(Pixel*Frame) : 0.161 Stream size : 1.34 GiB (98%) Writing library : x264 core 142 Encoding settings : cabac=1 / ref=4 / deblock=1:1:1 / analyse=0x3:0x113 / me=umh / subme=8 / psy=1 / psy_rd=0.40:0.00 / mixed_ref=1 / me_range=16 / chroma_me=1 / trellis=1 / 8x8dct=1 / cqm=0 / deadzone=21,11 / fast_pskip=1 / chroma_qp_offset=-2 / threads=12 / lookahead_threads=2 / sliced_threads=0 / nr=0 / decimate=1 / interlaced=0 / bluray_compat=0 / constrained_intra=0 / bframes=0 / weightp=2 / keyint=96 / keyint_min=48 / scenecut=40 / intra_refresh=0 / rc_lookahead=48 / rc=2pass / mbtree=1 / bitrate=8000 / ratetol=1.0 / qcomp=0.60 / qpmin=0 / qpmax=69 / qpstep=4 / cplxblur=20.0 / qblur=0.5 / vbv_maxrate=12000 / vbv_bufsize=18000 / nal_hrd=none / filler=0 / ip_ratio=1.40 / aq=1:0.60 Default : Yes Forced : No Audio ID : 2 Format : AAC LC Format/Info : Advanced Audio Codec Low Complexity Codec ID : A_AAC-2 Duration : 24 min 9 s Bit rate : 128 kb/s Channel(s) : 2 channels Channel layout : L R Sampling rate : 44.1 kHz Frame rate : 43.066 FPS (1024 SPF) Compression mode : Lossy Stream size : 22.1 MiB (2%) Language : Japanese Default : Yes Forced : No Text ID : 3 Format : ASS Codec ID : S_TEXT/ASS Codec ID/Info : Advanced Sub Station Alpha Duration : 23 min 58 s Bit rate : 101 b/s Count of elements : 176 Compression mode : Lossless Stream size : 17.8 KiB (0%) Language : German Default : Yes Forced : No ​

    720p:[​IMG]1080p:[​IMG]

    Geschützter Bereich
    Registriere dich oder logge dich ein, um den Inhalt sehen zu können
     
    Zuletzt bearbeitet: 21. Apr. 2021
  2. Tanuki
    Tanuki

    Uploader Otaku Experte

    Registriert seit:
    7. Juli 2016
    Beiträge:
    88
    Zustimmungen:
    18.692
    Episode 3 hinzugefügt
     

Diese Seite empfehlen