Welcome to our Community
Wanting to join the rest of our members? Feel free to sign up today.
Sign up

Sword Gai The Animation|Swordgai The Animation [Ger-Eng-Jap-Dub][Ger-Eng-Sub][720p|1080p][WebRip] - Netflix

Azugo

H͓̽u͓̽g͓̽o͓̽ ͓̽&͓̽ ͓̽A͓̽z͓̽u͓̽r͓̽a͓̽
Otaku Gott
Uploader
25 März 2020
3.189
24.360
113
Sword Gai The Animation
Swordgai The Animation

1aFBIKY.jpg


Kurzbeschreibung:
anisearch schrieb:
Amon, ein Schwertschmied, stößt im Wald zufällig auf einen Säugling und dessen tote Mutter. Obgleich er anfangs mit der Situation überfordert ist, entscheidet er sich schließlich, den Jungen mitzunehmen und ihn so vor dem sicheren Tod zu bewahren. Zehn Jahre nach dieser schicksalhaften Begegnung geht der Junge von damals, Gai, bei Amon in die Lehre. Während der Herstellung eines Schwertes kommt es jedoch zu einem tragischen Unfall, bei dem Gai seinen rechten Arm verliert. Daraufhin entscheidet Amon ein Schwert namens Shiryuu zu benutzen, um daraus einen künstlichen Arm für Gai zu fertigen. Und so beginnt es...


Folgenanzahl: 12/12
Größe pro Folge: ~650MB / ~1GB
Folgendauer: ~24min
Produktionshaus: LandQ Studios
Lizenzhaber: Netflix
Releaser: Gott (DragsterPS)
Art: Lizenzrelease
Sprache: Deutsch, Japanisch, Englisch
Untertitel: Deutsch, Englisch (Full & Forced)
Auflösung: 720p / 1080p
Format: MKV
Quelle: WebRip
Videocodec: x264
Farbtiefe: 8bit
Audiocodec: AC-3
Hoster: Rapidgator, Ddownload

Code:
[/B][/CENTER]
[B][CENTER]Format                                   : Matroska
Format version                           : Version 4 / Version 2
File size                                : 718 MiB
Duration                                 : 22 min 37 s
Overall bit rate mode                    : Variable
Overall bit rate                         : 4 433 kb/s
Encoded date                             : UTC 2018-03-23 19:12:25
Writing application                      : mkvmerge v9.2.0 ('Photograph') 32bit
Writing library                          : libebml v1.3.3 + libmatroska v1.4.4
Attachments                              : PTS75F.ttf

Video
ID                                       : 1
Format                                   : AVC
Format/Info                              : Advanced Video Codec
Format profile                           : [email protected]
Format settings                          : CABAC / 3 Ref Frames
Format settings, CABAC                   : Yes
Format settings, RefFrames               : 3 frames
Codec ID                                 : V_MPEG4/ISO/AVC
Duration                                 : 22 min 37 s
Bit rate mode                            : Variable
Bit rate                                 : 3 320 kb/s
Maximum bit rate                         : 4 980 kb/s
Width                                    : 1 280 pixels
Height                                   : 720 pixels
Display aspect ratio                     : 16:9
Frame rate mode                          : Constant
Frame rate                               : 23.976 (24000/1001) FPS
Color space                              : YUV
Chroma subsampling                       : 4:2:0
Bit depth                                : 8 bits
Scan type                                : Progressive
Bits/(Pixel*Frame)                       : 0.150
Stream size                              : 530 MiB (74%)
Writing library                          : x264 core 148 r2714 2daf636
Encoding settings                        : cabac=1 / ref=3 / deblock=1:0:0 / analyse=0x1:0x111 / me=umh / subme=10 / psy=1 / psy_rd=1.00:0.00 / mixed_ref=1 / me_range=24 / chroma_me=1 / trellis=2 / 8x8dct=0 / cqm=0 / deadzone=21,11 / fast_pskip=1 / chroma_qp_offset=-2 / threads=8 / lookahead_threads=1 / sliced_threads=0 / nr=0 / decimate=1 / interlaced=0 / bluray_compat=0 / stitchable=1 / constrained_intra=0 / bframes=2 / b_pyramid=0 / b_adapt=2 / b_bias=0 / direct=3 / weightb=1 / open_gop=0 / weightp=2 / keyint=48 / keyint_min=25 / scenecut=0 / intra_refresh=0 / rc_lookahead=48 / rc=2pass / mbtree=1 / bitrate=3320 / ratetol=1.0 / qcomp=0.50 / qpmin=6 / qpmax=51 / qpstep=4 / cplxblur=20.0 / qblur=0.5 / vbv_maxrate=4980 / vbv_bufsize=6640 / nal_hrd=vbr / filler=0 / ip_ratio=1.40 / aq=1:1.00
Default                                  : Yes
Forced                                   : No

Audio #1
ID                                       : 2
Format                                   : AC-3
Format/Info                              : Audio Coding 3
Codec ID                                 : A_AC3
Duration                                 : 22 min 37 s
Bit rate mode                            : Constant
Bit rate                                 : 384 kb/s
Channel(s)                               : 6 channels
Channel positions                        : Front: L C R, Side: L R, LFE
Sampling rate                            : 48.0 kHz
Frame rate                               : 31.250 FPS (1536 SPF)
Bit depth                                : 16 bits
Compression mode                         : Lossy
Stream size                              : 62.2 MiB (9%)
Title                                    : English
Language                                 : English
Service kind                             : Complete Main
Default                                  : No
Forced                                   : No

Audio #2
ID                                       : 3
Format                                   : AC-3
Format/Info                              : Audio Coding 3
Codec ID                                 : A_AC3
Duration                                 : 22 min 37 s
Bit rate mode                            : Constant
Bit rate                                 : 384 kb/s
Channel(s)                               : 6 channels
Channel positions                        : Front: L C R, Side: L R, LFE
Sampling rate                            : 48.0 kHz
Frame rate                               : 31.250 FPS (1536 SPF)
Bit depth                                : 16 bits
Compression mode                         : Lossy
Stream size                              : 62.2 MiB (9%)
Title                                    : German
Language                                 : German
Service kind                             : Complete Main
Default                                  : Yes
Forced                                   : No

Audio #3
ID                                       : 4
Format                                   : AC-3
Format/Info                              : Audio Coding 3
Codec ID                                 : A_AC3
Duration                                 : 22 min 37 s
Bit rate mode                            : Constant
Bit rate                                 : 384 kb/s
Channel(s)                               : 6 channels
Channel positions                        : Front: L C R, Side: L R, LFE
Sampling rate                            : 48.0 kHz
Frame rate                               : 31.250 FPS (1536 SPF)
Bit depth                                : 16 bits
Compression mode                         : Lossy
Stream size                              : 62.2 MiB (9%)
Title                                    : Japanese
Language                                 : Japanese
Service kind                             : Complete Main
Default                                  : No
Forced                                   : No

Text #1
ID                                       : 5
Format                                   : UTF-8
Codec ID                                 : S_TEXT/utf8mb4
Codec ID/Info                            : UTF-8 Plain Text
Duration                                 : 21 min 9 s
Bit rate                                 : 0 b/s
Count of elements                        : 2
Stream size                              : 49.0 Bytes (0%)
Title                                    : English [Forced]
Language                                 : English
Default                                  : No
Forced                                   : Yes

Text #2
ID                                       : 6
Format                                   : UTF-8
Codec ID                                 : S_TEXT/utf8mb4
Codec ID/Info                            : UTF-8 Plain Text
Duration                                 : 21 min 9 s
Bit rate                                 : 30 b/s
Count of elements                        : 163
Stream size                              : 4.76 KiB (0%)
Title                                    : English [Full]
Language                                 : English
Default                                  : No
Forced                                   : No

Text #3
ID                                       : 7
Format                                   : ASS
Codec ID                                 : S_TEXT/ASS
Codec ID/Info                            : Advanced Sub Station Alpha
Duration                                 : 21 min 7 s
Bit rate                                 : 1 b/s
Count of elements                        : 4
Compression mode                         : Lossless
Stream size                              : 169 Bytes (0%)
Title                                    : Deutsch [Forced]
Language                                 : German
Default                                  : Yes
Forced                                   : Yes

Text #4
ID                                       : 8
Format                                   : ASS
Codec ID                                 : S_TEXT/ASS
Codec ID/Info                            : Advanced Sub Station Alpha
Duration                                 : 22 min 12 s
Bit rate                                 : 52 b/s
Count of elements                        : 163
Compression mode                         : Lossless
Stream size                              : 8.55 KiB (0%)
Title                                    : Deutsch [Full]
Language                                 : German
Default                                  : No
Forced                                   : No

Code:
[/B][/CENTER]
[B][CENTER]Format                                   : Matroska
Format version                           : Version 4 / Version 2
File size                                : 1.28 GiB
Duration                                 : 22 min 37 s
Overall bit rate mode                    : Variable
Overall bit rate                         : 8 104 kb/s
Encoded date                             : UTC 2018-03-23 19:05:07
Writing application                      : mkvmerge v9.2.0 ('Photograph') 32bit
Writing library                          : libebml v1.3.3 + libmatroska v1.4.4
Attachments                              : PTS75F.ttf

Video
ID                                       : 1
Format                                   : AVC
Format/Info                              : Advanced Video Codec
Format profile                           : [email protected]
Format settings                          : CABAC / 3 Ref Frames
Format settings, CABAC                   : Yes
Format settings, RefFrames               : 3 frames
Codec ID                                 : V_MPEG4/ISO/AVC
Duration                                 : 22 min 37 s
Bit rate mode                            : Variable
Bit rate                                 : 7 150 kb/s
Maximum bit rate                         : 10.7 Mb/s
Width                                    : 1 920 pixels
Height                                   : 1 080 pixels
Display aspect ratio                     : 16:9
Frame rate mode                          : Constant
Frame rate                               : 23.976 (24000/1001) FPS
Color space                              : YUV
Chroma subsampling                       : 4:2:0
Bit depth                                : 8 bits
Scan type                                : Progressive
Bits/(Pixel*Frame)                       : 0.144
Stream size                              : 1.10 GiB (86%)
Writing library                          : x264 core 148 r2714 2daf636
Encoding settings                        : cabac=1 / ref=3 / deblock=1:0:0 / analyse=0x1:0x111 / me=umh / subme=10 / psy=1 / psy_rd=1.00:0.00 / mixed_ref=1 / me_range=24 / chroma_me=1 / trellis=2 / 8x8dct=0 / cqm=0 / deadzone=21,11 / fast_pskip=1 / chroma_qp_offset=-2 / threads=8 / lookahead_threads=1 / sliced_threads=0 / nr=0 / decimate=1 / interlaced=0 / bluray_compat=0 / stitchable=1 / constrained_intra=0 / bframes=2 / b_pyramid=0 / b_adapt=2 / b_bias=0 / direct=3 / weightb=1 / open_gop=0 / weightp=2 / keyint=48 / keyint_min=25 / scenecut=0 / intra_refresh=0 / rc_lookahead=48 / rc=2pass / mbtree=1 / bitrate=7150 / ratetol=1.0 / qcomp=0.50 / qpmin=6 / qpmax=51 / qpstep=4 / cplxblur=20.0 / qblur=0.5 / vbv_maxrate=10725 / vbv_bufsize=14300 / nal_hrd=vbr / filler=0 / ip_ratio=1.40 / aq=1:1.00
Default                                  : Yes
Forced                                   : No

Audio #1
ID                                       : 2
Format                                   : AC-3
Format/Info                              : Audio Coding 3
Codec ID                                 : A_AC3
Duration                                 : 22 min 37 s
Bit rate mode                            : Constant
Bit rate                                 : 384 kb/s
Channel(s)                               : 6 channels
Channel positions                        : Front: L C R, Side: L R, LFE
Sampling rate                            : 48.0 kHz
Frame rate                               : 31.250 FPS (1536 SPF)
Bit depth                                : 16 bits
Compression mode                         : Lossy
Stream size                              : 62.2 MiB (5%)
Title                                    : English
Language                                 : English
Service kind                             : Complete Main
Default                                  : No
Forced                                   : No

Audio #2
ID                                       : 3
Format                                   : AC-3
Format/Info                              : Audio Coding 3
Codec ID                                 : A_AC3
Duration                                 : 22 min 37 s
Bit rate mode                            : Constant
Bit rate                                 : 384 kb/s
Channel(s)                               : 6 channels
Channel positions                        : Front: L C R, Side: L R, LFE
Sampling rate                            : 48.0 kHz
Frame rate                               : 31.250 FPS (1536 SPF)
Bit depth                                : 16 bits
Compression mode                         : Lossy
Stream size                              : 62.2 MiB (5%)
Title                                    : German
Language                                 : German
Service kind                             : Complete Main
Default                                  : Yes
Forced                                   : No

Audio #3
ID                                       : 4
Format                                   : AC-3
Format/Info                              : Audio Coding 3
Codec ID                                 : A_AC3
Duration                                 : 22 min 37 s
Bit rate mode                            : Constant
Bit rate                                 : 384 kb/s
Channel(s)                               : 6 channels
Channel positions                        : Front: L C R, Side: L R, LFE
Sampling rate                            : 48.0 kHz
Frame rate                               : 31.250 FPS (1536 SPF)
Bit depth                                : 16 bits
Compression mode                         : Lossy
Stream size                              : 62.2 MiB (5%)
Title                                    : Japanese
Language                                 : Japanese
Service kind                             : Complete Main
Default                                  : No
Forced                                   : No

Text #1
ID                                       : 5
Format                                   : UTF-8
Codec ID                                 : S_TEXT/utf8mb4
Codec ID/Info                            : UTF-8 Plain Text
Duration                                 : 21 min 9 s
Bit rate                                 : 0 b/s
Count of elements                        : 2
Stream size                              : 49.0 Bytes (0%)
Title                                    : English [Forced]
Language                                 : English
Default                                  : No
Forced                                   : Yes

Text #2
ID                                       : 6
Format                                   : UTF-8
Codec ID                                 : S_TEXT/utf8mb4
Codec ID/Info                            : UTF-8 Plain Text
Duration                                 : 21 min 9 s
Bit rate                                 : 30 b/s
Count of elements                        : 163
Stream size                              : 4.76 KiB (0%)
Title                                    : English [Full]
Language                                 : English
Default                                  : No
Forced                                   : No

Text #3
ID                                       : 7
Format                                   : ASS
Codec ID                                 : S_TEXT/ASS
Codec ID/Info                            : Advanced Sub Station Alpha
Duration                                 : 21 min 7 s
Bit rate                                 : 1 b/s
Count of elements                        : 4
Compression mode                         : Lossless
Stream size                              : 169 Bytes (0%)
Title                                    : Deutsch [Forced]
Language                                 : German
Default                                  : Yes
Forced                                   : Yes

Text #4
ID                                       : 8
Format                                   : ASS
Codec ID                                 : S_TEXT/ASS
Codec ID/Info                            : Advanced Sub Station Alpha
Duration                                 : 22 min 12 s
Bit rate                                 : 52 b/s
Count of elements                        : 163
Compression mode                         : Lossless
Stream size                              : 8.55 KiB (0%)
Title                                    : Deutsch [Full]
Language                                 : German
Default                                  : No
Forced                                   : No



Note:
Ich habe die Mainfont (Schriftart) und das Timing überarbeitet.

Status: Rapidgator
F1C2C28B3D.png
ddownload
A84829444F.png

To view the content, you need to Sign In or Register.
 
Zuletzt bearbeitet: