Welcome to our Community
Wanting to join the rest of our members? Feel free to sign up today.
Sign up

Talentless Nana | Munou na Nana [Ger-Jap-Dub][Ger-Sub][720p][1080p][E-AC-3|DTS-HD][8bits|10bits][x264|x265][BluRay] - Hugo

Azugo

H͓̽u͓̽g͓̽o͓̽ ͓̽&͓̽ ͓̽A͓̽z͓̽u͓̽r͓̽a͓̽
Otaku Gott
Uploader
25 März 2020
3.569
35.402
118


Talentless Nana | Munou na Nana



81GQ9upITcL._SL1500_.jpg



oie_bchbujbgr3vm-png.30595
anisearch.com schrieb:
Wir schreiben das Jahr 20XX – die Erde wurde von Monstern angegriffen, die nur als „Feind der Menschheit“ bekannt sind. Um dieser Bedrohung zu begegnen, wurden spezielle Schulen gegründet. Dort werden Jugendliche mit außergewöhnlichen Fähigkeiten unterrichtet. Diese Personen, die als „die Talentierten“ bekannt sind, haben Fähigkeiten, die den Regeln der Realität trotzen und sie dazu befähigen gegen diese Monster zu kämpfen.

Eine dieser Akademien befindet sich auf einer abgelegenen Insel. Unter den dortigen Schülern mit übernatürlichen Kräften befindet sich ein Außenseiter, eine Person, die in diese Schule geschickt wurde, obwohl sie keinerlei angeborene Macht besitzt. Dies ist die Geschichte von Nana, die darin bestrebt ist, die Feinde der Menschheit allein durch den Einsatz von Intelligenz und Manipulation auszulöschen!
Quelle: https://www.anisearch.de/anime/14653



oie_bchbujbgr3vm1-png.30596


Spieldauer: ~23min
Genre: Drama
Nebengenres: Alltagsleben, Fantasy, Fantasy, Horror, Psychodrama
Jahr: 2020
Sprache:
Deutsch.png
Deutsch,
Japanisch.png
Japanisch
Untertitel:
Deutsch.png
Deutsch
Größe pro Folge: ~507mb, ~789mb ~1150mb, ~1130mb
Episodenanzahl: 13/13
Format: MKV
Auflösung: 720p (16:9), 1080p (16:9)
Videocodec: H264 (AVC). H265 (HEVC)
Audiocodec: E-AC-3, DTS-HD
Releasegruppe: Hugo
Hoster:
rapidgator-gif.30742
Rapidgator,
ddownload-gif.30720
ddownload


oie_bchbujbgr3vm2-png.30597

Rich (BBCode):
Format                                   : Matroska
Format version                           : Version 4
File size                                : 507 MiB
Duration                                 : 23 min 41 s
Overall bit rate                         : 2 991 kb/s
Encoded date                             : UTC 2021-12-17 16:31:24
Writing application                      : mkvmerge v63.0.0 ('Everything') 64-bit
Writing library                          : libebml v1.4.2 + libmatroska v1.6.4
Release                                  : By Hugo
Version                                  : 1.6

Video
ID                                       : 1
Format                                   : AVC
Format/Info                              : Advanced Video Codec
Format profile                           : [email protected]
Format settings                          : CABAC / 6 Ref Frames
Format settings, CABAC                   : Yes
Format settings, Reference frames        : 6 frames
Codec ID                                 : V_MPEG4/ISO/AVC
Duration                                 : 23 min 41 s
Bit rate                                 : 1 685 kb/s
Width                                    : 1 280 pixels
Height                                   : 720 pixels
Display aspect ratio                     : 16:9
Frame rate mode                          : Constant
Frame rate                               : 23.976 (24000/1001) FPS
Color space                              : YUV
Chroma subsampling                       : 4:2:0
Bit depth                                : 8 bits
Scan type                                : Progressive
Bits/(Pixel*Frame)                       : 0.076
Stream size                              : 285 MiB (56%)
Language                                 : English
Default                                  : No
Forced                                   : No
Color range                              : Limited
Color primaries                          : BT.709
Transfer characteristics                 : BT.709
Matrix coefficients                      : BT.709

Audio #1
ID                                       : 4
Format                                   : E-AC-3
Format/Info                              : Enhanced AC-3
Commercial name                          : Dolby Digital Plus
Codec ID                                 : A_EAC3
Duration                                 : 23 min 41 s
Bit rate mode                            : Constant
Bit rate                                 : 640 kb/s
Channel(s)                               : 6 channels
Channel layout                           : L R C LFE Ls Rs
Sampling rate                            : 48.0 kHz
Frame rate                               : 31.250 FPS (1536 SPF)
Bit depth                                : 16 bits
Compression mode                         : Lossy
Stream size                              : 108 MiB (21%)
Title                                    : Surround 5.1
Language                                 : German
Service kind                             : Complete Main
Default                                  : Yes
Forced                                   : No

Audio #2
ID                                       : 5
Format                                   : E-AC-3
Format/Info                              : Enhanced AC-3
Commercial name                          : Dolby Digital Plus
Codec ID                                 : A_EAC3
Duration                                 : 23 min 41 s
Bit rate mode                            : Constant
Bit rate                                 : 640 kb/s
Channel(s)                               : 2 channels
Channel layout                           : L R
Sampling rate                            : 48.0 kHz
Frame rate                               : 31.250 FPS (1536 SPF)
Bit depth                                : 16 bits
Compression mode                         : Lossy
Stream size                              : 108 MiB (21%)
Title                                    : Stereo
Language                                 : Japanese
Service kind                             : Complete Main
Default                                  : No
Forced                                   : No

Text #1
ID                                       : 2
Format                                   : PGS
Muxing mode                              : zlib
Codec ID                                 : S_HDMV/PGS
Codec ID/Info                            : Picture based subtitle format used on BDs/HD-DVDs
Duration                                 : 23 min 33 s
Bit rate                                 : 57.7 kb/s
Count of elements                        : 789
Stream size                              : 9.73 MiB (2%)
Title                                    : German Full
Language                                 : German
Default                                  : No
Forced                                   : No

Text #2
ID                                       : 3
Format                                   : PGS
Muxing mode                              : zlib
Codec ID                                 : S_HDMV/PGS
Codec ID/Info                            : Picture based subtitle format used on BDs/HD-DVDs
Duration                                 : 23 min 33 s
Bit rate                                 : 4 574 b/s
Count of elements                        : 45
Stream size                              : 789 KiB (0%)
Title                                    : German Forced
Language                                 : German
Default                                  : Yes
Forced                                   : No

Menu
00:00:00.000                             : :Chapter 01
00:00:15.056                             : :Chapter 02
00:12:02.054                             : :Chapter 03
00:22:03.822                             : :Chapter 04
00:23:33.703                             : :Chapter 05
Rich (BBCode):
Format                                   : Matroska
Format version                           : Version 4
File size                                : 789 MiB
Duration                                 : 23 min 41 s
Overall bit rate                         : 4 656 kb/s
Encoded date                             : UTC 2021-12-17 16:45:30
Writing application                      : mkvmerge v63.0.0 ('Everything') 64-bit
Writing library                          : libebml v1.4.2 + libmatroska v1.6.4
Release                                  : By Hugo
Version                                  : 1.6

Video
ID                                       : 1
Format                                   : AVC
Format/Info                              : Advanced Video Codec
Format profile                           : [email protected]
Format settings                          : CABAC / 8 Ref Frames
Format settings, CABAC                   : Yes
Format settings, Reference frames        : 8 frames
Codec ID                                 : V_MPEG4/ISO/AVC
Duration                                 : 23 min 41 s
Bit rate                                 : 3 350 kb/s
Width                                    : 1 920 pixels
Height                                   : 1 080 pixels
Display aspect ratio                     : 16:9
Frame rate mode                          : Constant
Frame rate                               : 23.976 (24000/1001) FPS
Color space                              : YUV
Chroma subsampling                       : 4:2:0
Bit depth                                : 8 bits
Scan type                                : Progressive
Bits/(Pixel*Frame)                       : 0.067
Stream size                              : 567 MiB (72%)
Language                                 : English
Default                                  : No
Forced                                   : No
Color range                              : Limited
Color primaries                          : BT.709
Transfer characteristics                 : BT.709
Matrix coefficients                      : BT.709

Audio #1
ID                                       : 4
Format                                   : E-AC-3
Format/Info                              : Enhanced AC-3
Commercial name                          : Dolby Digital Plus
Codec ID                                 : A_EAC3
Duration                                 : 23 min 41 s
Bit rate mode                            : Constant
Bit rate                                 : 640 kb/s
Channel(s)                               : 6 channels
Channel layout                           : L R C LFE Ls Rs
Sampling rate                            : 48.0 kHz
Frame rate                               : 31.250 FPS (1536 SPF)
Bit depth                                : 16 bits
Compression mode                         : Lossy
Stream size                              : 108 MiB (14%)
Title                                    : Surround 5.1
Language                                 : German
Service kind                             : Complete Main
Default                                  : Yes
Forced                                   : No

Audio #2
ID                                       : 5
Format                                   : E-AC-3
Format/Info                              : Enhanced AC-3
Commercial name                          : Dolby Digital Plus
Codec ID                                 : A_EAC3
Duration                                 : 23 min 41 s
Bit rate mode                            : Constant
Bit rate                                 : 640 kb/s
Channel(s)                               : 2 channels
Channel layout                           : L R
Sampling rate                            : 48.0 kHz
Frame rate                               : 31.250 FPS (1536 SPF)
Bit depth                                : 16 bits
Compression mode                         : Lossy
Stream size                              : 108 MiB (14%)
Title                                    : Stereo
Language                                 : Japanese
Service kind                             : Complete Main
Default                                  : No
Forced                                   : No

Text #1
ID                                       : 2
Format                                   : PGS
Muxing mode                              : zlib
Codec ID                                 : S_HDMV/PGS
Codec ID/Info                            : Picture based subtitle format used on BDs/HD-DVDs
Duration                                 : 23 min 33 s
Bit rate                                 : 57.7 kb/s
Count of elements                        : 789
Stream size                              : 9.73 MiB (1%)
Title                                    : German Full
Language                                 : German
Default                                  : No
Forced                                   : No

Text #2
ID                                       : 3
Format                                   : PGS
Muxing mode                              : zlib
Codec ID                                 : S_HDMV/PGS
Codec ID/Info                            : Picture based subtitle format used on BDs/HD-DVDs
Duration                                 : 23 min 33 s
Bit rate                                 : 4 574 b/s
Count of elements                        : 45
Stream size                              : 789 KiB (0%)
Title                                    : German Forced
Language                                 : German
Default                                  : Yes
Forced                                   : No

Menu
00:00:00.000                             : :Chapter 01
00:00:15.056                             : :Chapter 02
00:12:02.054                             : :Chapter 03
00:22:03.822                             : :Chapter 04
00:23:33.703                             : :Chapter 05

Rich (BBCode):
Format                                   : Matroska
Format version                           : Version 4
File size                                : 1.15 GiB
Duration                                 : 23 min 41 s
Overall bit rate mode                    : Variable
Overall bit rate                         : 6 924 kb/s
Encoded date                             : UTC 2021-12-17 16:30:11
Writing application                      : mkvmerge v63.0.0 ('Everything') 64-bit
Writing library                          : libebml v1.4.2 + libmatroska v1.6.4
Release                                  : By Hugo
Version                                  : 1.6

Video
ID                                       : 1
Format                                   : AVC
Format/Info                              : Advanced Video Codec
Format profile                           : [email protected]
Format settings                          : CABAC / 8 Ref Frames
Format settings, CABAC                   : Yes
Format settings, Reference frames        : 8 frames
Codec ID                                 : V_MPEG4/ISO/AVC
Duration                                 : 23 min 41 s
Width                                    : 1 920 pixels
Height                                   : 1 080 pixels
Display aspect ratio                     : 16:9
Frame rate mode                          : Constant
Frame rate                               : 23.976 (24000/1001) FPS
Color space                              : YUV
Chroma subsampling                       : 4:2:0
Bit depth                                : 8 bits
Scan type                                : Progressive
Language                                 : English
Default                                  : No
Forced                                   : No
Color range                              : Limited
Color primaries                          : BT.709
Transfer characteristics                 : BT.709
Matrix coefficients                      : BT.709

Audio #1
ID                                       : 4
Format                                   : DTS XLL
Format/Info                              : Digital Theater Systems
Commercial name                          : DTS-HD Master Audio
Codec ID                                 : A_DTS
Duration                                 : 23 min 41 s
Bit rate mode                            : Variable
Channel(s)                               : 6 channels
Channel layout                           : C L R Ls Rs LFE
Sampling rate                            : 48.0 kHz
Frame rate                               : 93.750 FPS (512 SPF)
Bit depth                                : 16 bits
Compression mode                         : Lossless
Title                                    : Surround 5.1
Language                                 : German
Default                                  : Yes
Forced                                   : No

Audio #2
ID                                       : 5
Format                                   : DTS XLL
Format/Info                              : Digital Theater Systems
Commercial name                          : DTS-HD Master Audio
Codec ID                                 : A_DTS
Duration                                 : 23 min 41 s
Bit rate mode                            : Variable
Channel(s)                               : 2 channels
Channel layout                           : L R
Sampling rate                            : 48.0 kHz
Frame rate                               : 93.750 FPS (512 SPF)
Bit depth                                : 16 bits
Compression mode                         : Lossless
Title                                    : Stereo
Language                                 : Japanese
Default                                  : No
Forced                                   : No

Text #1
ID                                       : 2
Format                                   : PGS
Muxing mode                              : zlib
Codec ID                                 : S_HDMV/PGS
Codec ID/Info                            : Picture based subtitle format used on BDs/HD-DVDs
Title                                    : German Full
Language                                 : German
Default                                  : No
Forced                                   : No

Text #2
ID                                       : 3
Format                                   : PGS
Muxing mode                              : zlib
Codec ID                                 : S_HDMV/PGS
Codec ID/Info                            : Picture based subtitle format used on BDs/HD-DVDs
Title                                    : German Forced
Language                                 : German
Default                                  : Yes
Forced                                   : No

Menu
00:00:00.000                             : :Chapter 01
00:00:15.056                             : :Chapter 02
00:12:02.054                             : :Chapter 03
00:22:03.822                             : :Chapter 04
00:23:33.703                             : :Chapter 05

Rich (BBCode):
Format                                   : Matroska
Format version                           : Version 4
File size                                : 1.13 GiB
Duration                                 : 23 min 41 s
Overall bit rate                         : 6 829 kb/s
Encoded date                             : UTC 2021-12-18 11:03:05
Writing application                      : mkvmerge v63.0.0 ('Everything') 64-bit
Writing library                          : libebml v1.4.2 + libmatroska v1.6.4
Please select a tag name/Version         : 1.6
Release                                  : By Hugo

Video
ID                                       : 1
Format                                   : HEVC
Format/Info                              : High Efficiency Video Coding
Format profile                           : Main [email protected]@Main
Codec ID                                 : V_MPEGH/ISO/HEVC
Duration                                 : 23 min 41 s
Bit rate                                 : 3 784 kb/s
Width                                    : 1 920 pixels
Height                                   : 1 080 pixels
Display aspect ratio                     : 16:9
Frame rate mode                          : Constant
Frame rate                               : 23.976 (24000/1001) FPS
Color space                              : YUV
Chroma subsampling                       : 4:2:0 (Type 0)
Bit depth                                : 10 bits
Bits/(Pixel*Frame)                       : 0.076
Stream size                              : 641 MiB (55%)
Language                                 : English
Default                                  : No
Forced                                   : No
Color range                              : Limited
Color primaries                          : BT.709
Transfer characteristics                 : BT.709
Matrix coefficients                      : BT.709

Audio #1
ID                                       : 4
Format                                   : DTS
Format/Info                              : Digital Theater Systems
Codec ID                                 : A_DTS
Duration                                 : 23 min 41 s
Bit rate mode                            : Constant
Bit rate                                 : 1 509 kb/s
Channel(s)                               : 6 channels
Channel layout                           : C L R Ls Rs LFE
Sampling rate                            : 48.0 kHz
Frame rate                               : 93.750 FPS (512 SPF)
Bit depth                                : 16 bits
Compression mode                         : Lossy
Stream size                              : 256 MiB (22%)
Title                                    : Surround 5.1
Language                                 : German
Default                                  : No
Forced                                   : No

Audio #2
ID                                       : 5
Format                                   : DTS
Format/Info                              : Digital Theater Systems
Codec ID                                 : A_DTS
Duration                                 : 23 min 41 s
Bit rate mode                            : Constant
Bit rate                                 : 1 509 kb/s
Channel(s)                               : 2 channels
Channel layout                           : L R
Sampling rate                            : 48.0 kHz
Frame rate                               : 93.750 FPS (512 SPF)
Bit depth                                : 16 bits
Compression mode                         : Lossy
Stream size                              : 256 MiB (22%)
Title                                    : Stereo
Language                                 : Japanese
Default                                  : No
Forced                                   : No

Text #1
ID                                       : 2
Format                                   : PGS
Muxing mode                              : zlib
Codec ID                                 : S_HDMV/PGS
Codec ID/Info                            : Picture based subtitle format used on BDs/HD-DVDs
Duration                                 : 23 min 33 s
Bit rate                                 : 57.7 kb/s
Count of elements                        : 789
Stream size                              : 9.73 MiB (1%)
Title                                    : GErman Full
Language                                 : German
Default                                  : Yes
Forced                                   : No

Text #2
ID                                       : 3
Format                                   : PGS
Muxing mode                              : zlib
Codec ID                                 : S_HDMV/PGS
Codec ID/Info                            : Picture based subtitle format used on BDs/HD-DVDs
Duration                                 : 23 min 33 s
Bit rate                                 : 4 574 b/s
Count of elements                        : 45
Stream size                              : 789 KiB (0%)
Title                                    : German Forced
Language                                 : German
Default                                  : No
Forced                                   : No

Menu
00:00:00.000                             : :Chapter 01
00:00:15.056                             : :Chapter 02
00:12:02.054                             : :Chapter 03
00:22:03.822                             : :Chapter 04
00:23:33.703                             : :Chapter 05





oie_bchbujbgr3vm3-png.30598

cooltext396117611400625-png.30739

720p EAC3
5C78EE3CC0.png

1080p EAC3
651BA78A6A.png

1080p DTS-HD
F703813297.png

x265 1080p DTS-HD
B04A89FE0D.png


cooltext3961176114006251-png.30741

720p EAC3
6AB25FF5A8.png

1080p EAC3
B07C4B7C24.png

1080p DTS-HD
88395F1143.png

x265 1080p DTS-HD
A7CB4F7234.png


To view the content, you need to Sign In or Register.

 
Zuletzt bearbeitet: