Welcome to our Community
Wanting to join the rest of our members? Feel free to sign up today.
Sign up

Tiger & Bunny 2 Part 1 [Ger-Eng-Jap-Dub][Ger-Eng-Sub][1080p][Web-DL] - Netflix

Azugo

H͓̽u͓̽g͓̽o͓̽ ͓̽&͓̽ ͓̽A͓̽z͓̽u͓̽r͓̽a͓̽
Otaku Gott
Uploader
25 März 2020
3.262
25.636
118


Tiger & Bunny 2




13218_300.webp



oie_bchbujbgr3vm-png.30595
anisearch.de schrieb:
In der Metropole Sternbild City leben normale Menschen und solche, mit übernatürlichen Fähigkeiten, genannt »NEXT«, Tür an Tür miteinander. Um ihren eigenen Ruhm und den der Firmen, für die sie arbeiten, zu mehren, bekämpfen sie Verbrecher und sammeln so Heldenpunkte, mit denen sie im Ranking der beliebten TV-Show »Hero TV« aufsteigen, um am Ende den begehrten Titel des »King of Heroes« zu erlangen.Kotetsu T. Kaburagi und Barnaby Brooks Jr. arbeiten noch immer zusammen, um genau dieses Ziel zu erreichen und ihre Firma, »Apollon Media«, zu unterstützen. Doch mittlerweile wurde das Heldenpunkte-System auch von anderen Städten adaptiert und ständig tauchen neue Helden auf, die sich beweisen wollen. Vor allem einer dieser Neuankömmlinge bereitet den beiden Profis mehr Probleme als erwartet. Werden sie es trotzdem schaffen, sich einen Platz an der Spitze der Rangliste zu sichern?




oie_bchbujbgr3vm1-png.30596


Spieldauer: ~24 min
Genre: Actionkomödie
Nebengenres: Action, Komödie, Scifi
Sprache:
Deutsch.png
Deutsch,
Englisch.png
Englisch,
Japanisch.png
Japanisch
Untertitel:
Deutsch.png
Deutsch,
Deutsch.png
Deutsch (Forced),
Englisch.png
Englisch
Größe pro Folge: ~670mb
Episodenanzahl: 13/13
Format: MKV
Auflösung: 1080p (16:9)
Videocodec: H264 (AVC)
Audiocodec: E-AC-3
Releasegruppe: DK
Hoster:
rapidgator-gif.30742
Rapidgator,
ddownload-gif.30720
ddownload


oie_bchbujbgr3vm2-png.30597

Rich (BBCode):
Format                                   : Matroska
Format version                           : Version 4
File size                                : 670 MiB
Duration                                 : 25 min 17 s
Overall bit rate mode                    : Variable
Overall bit rate                         : 3 701 kb/s
Writing application                      : Lavf59.16.100
Writing library                          : Lavf59.16.100
ErrorDetectionType                       : Per level 1
Attachments                              : B:\MyDownloads\__my-custom-fonts-for-web_dl\_fonts.noto\Font.ttf
PUBLISHER                                : Netflix

Video
ID                                       : 1
Format                                   : AVC
Format/Info                              : Advanced Video Codec
Format profile                           : [email protected]
Format settings                          : CABAC / 4 Ref Frames
Format settings, CABAC                   : Yes
Format settings, Reference frames        : 4 frames
Codec ID                                 : V_MPEG4/ISO/AVC
Duration                                 : 25 min 17 s
Bit rate mode                            : Variable
Bit rate                                 : 1 707 kb/s
Maximum bit rate                         : 20.0 Mb/s
Width                                    : 1 920 pixels
Height                                   : 1 080 pixels
Display aspect ratio                     : 16:9
Frame rate mode                          : Constant
Frame rate                               : 23.976 (24000/1001) FPS
Color space                              : YUV
Chroma subsampling                       : 4:2:0
Bit depth                                : 8 bits
Scan type                                : Progressive
Bits/(Pixel*Frame)                       : 0.034
Stream size                              : 309 MiB (46%)
Writing library                          : x264 core 148 r2727 7d026e8
Encoding settings                        : cabac=1 / ref=4 / deblock=1:0:0 / analyse=0x3:0x111 / me=umh / subme=10 / psy=1 / psy_rd=1.00:0.00 / mixed_ref=1 / me_range=120 / chroma_me=1 / trellis=2 / 8x8dct=1 / cqm=0 / deadzone=21,11 / fast_pskip=1 / chroma_qp_offset=-2 / threads=8 / lookahead_threads=2 / sliced_threads=0 / nr=0 / decimate=1 / interlaced=0 / bluray_compat=0 / stitchable=1 / constrained_intra=0 / bframes=16 / b_pyramid=2 / b_adapt=2 / b_bias=0 / direct=3 / weightb=1 / open_gop=0 / weightp=2 / keyint=240 / keyint_min=121 / scenecut=0 / intra_refresh=0 / rc_lookahead=240 / rc=crf / mbtree=1 / crf=17.0 / qcomp=0.50 / qpmin=6 / qpmax=51 / qpstep=4 / vbv_maxrate=20000 / vbv_bufsize=25000 / crf_max=0.0 / nal_hrd=vbr / filler=0 / ip_ratio=1.40 / aq=1:0.80
Default                                  : Yes
Forced                                   : No

Audio #1
ID                                       : 2
Format                                   : E-AC-3
Format/Info                              : Enhanced AC-3
Commercial name                          : Dolby Digital Plus
Codec ID                                 : A_EAC3
Duration                                 : 25 min 17 s
Bit rate mode                            : Constant
Bit rate                                 : 640 kb/s
Channel(s)                               : 6 channels
Channel layout                           : L R C LFE Ls Rs
Sampling rate                            : 48.0 kHz
Frame rate                               : 31.250 FPS (1536 SPF)
Bit depth                                : 32 bits
Compression mode                         : Lossy
Delay relative to video                  : -83 ms
Stream size                              : 116 MiB (17%)
Language                                 : German
Service kind                             : Complete Main
Default                                  : Yes
Forced                                   : No

Audio #2
ID                                       : 3
Format                                   : E-AC-3
Format/Info                              : Enhanced AC-3
Commercial name                          : Dolby Digital Plus
Codec ID                                 : A_EAC3
Duration                                 : 25 min 17 s
Bit rate mode                            : Constant
Bit rate                                 : 640 kb/s
Channel(s)                               : 6 channels
Channel layout                           : L R C LFE Ls Rs
Sampling rate                            : 48.0 kHz
Frame rate                               : 31.250 FPS (1536 SPF)
Bit depth                                : 32 bits
Compression mode                         : Lossy
Delay relative to video                  : -83 ms
Stream size                              : 116 MiB (17%)
Language                                 : English
Service kind                             : Complete Main
Default                                  : No
Forced                                   : No

Audio #3
ID                                       : 4
Format                                   : E-AC-3
Format/Info                              : Enhanced AC-3
Commercial name                          : Dolby Digital Plus
Codec ID                                 : A_EAC3
Duration                                 : 25 min 17 s
Bit rate mode                            : Constant
Bit rate                                 : 640 kb/s
Channel(s)                               : 6 channels
Channel layout                           : L R C LFE Ls Rs
Sampling rate                            : 48.0 kHz
Frame rate                               : 31.250 FPS (1536 SPF)
Bit depth                                : 32 bits
Compression mode                         : Lossy
Delay relative to video                  : -83 ms
Stream size                              : 116 MiB (17%)
Language                                 : Japanese
Service kind                             : Complete Main
Default                                  : No
Forced                                   : No

Text #1
ID                                       : 5
Format                                   : ASS
Codec ID                                 : S_TEXT/ASS
Codec ID/Info                            : Advanced Sub Station Alpha
Duration                                 : 24 min 5 s
Compression mode                         : Lossless
Language                                 : German
Default                                  : Yes
Forced                                   : Yes

Text #2
ID                                       : 6
Format                                   : ASS
Codec ID                                 : S_TEXT/ASS
Codec ID/Info                            : Advanced Sub Station Alpha
Duration                                 : 24 min 5 s
Compression mode                         : Lossless
Language                                 : German
Default                                  : No
Forced                                   : No

Text #3
ID                                       : 7
Format                                   : ASS
Codec ID                                 : S_TEXT/ASS
Codec ID/Info                            : Advanced Sub Station Alpha
Duration                                 : 23 min 56 s
Compression mode                         : Lossless
Language                                 : English
Default                                  : No
Forced                                   : No



oie_bchbujbgr3vm3-png.30598

cooltext396117611400625-png.30739

529A384223.png

cooltext3961176114006251-png.30741

9A46B534C7.png

To view the content, you need to Sign In or Register.