Welcome to our Community
Wanting to join the rest of our members? Feel free to sign up today.
Sign up

Violet Evergarden: Der Film [Ger-Jap-Dub][Ger-Sub][DTS-HD | EAC3][2160p][HDR][AV1][BluRay] - AO

Kleinmike

Uploader
Otaku König
21 März 2021
279
4.422
93
Violet Evergarden: Der Film
劇場版 ヴァイオレット・エヴァーガーデン | Gekijouban Violet Evergarden

13540.webp


Beschreibung:
Seit ihrer Zeit als »Waffe« im Krieg, der nun schon eine ganze Weile zurückliegt, hat Violet Evergarden als sogenannte »Autonome Korrespondenz-Assistentin« viele Briefe im Auftrag anderer Leute geschrieben. Bei ihrem neuesten Auftrag soll sie Julis behilflich sein – einem Jungen, der in absehbarer Zeit an seiner Krankheit sterben wird. Violet schreibt für ihn Briefe an seine Eltern und Freunde, doch noch ahnt keiner, dass Julis’ Zeit viel knapper bemessen sein könnte als ursprünglich angenommen.

Trotz dieses Auftrags beschäftigen Violet noch immer die Worte, die ihr Gilbert Bougainvillea vor etlichen Jahren gesagt hat: »Ich liebe dich aus ganzem Herzen.« Und noch immer grübelt sie über deren Bedeutung; trotz des Rats von Dietfried, seinen Bruder lieber zu vergessen, kann Violet die Sache nicht einfach abhaken. Eines Tages erreicht Claudia Hodgins ein Brief, dessen Schrift er als Gilberts identifiziert – also von jenem Mann, den alle für tot gehalten haben. Claudia und Violet machen sich gemeinsam auf den Weg zur Insel, von der dieser Brief gekommen sein soll, doch dort angekommen erhält vor allem Violets Wiedersehensfreude einen empfindlichen Dämpfer …
Quelle: anisearch

Größe: ~13.1GB, ~8.1GB
Sprache: Japanisch | Deutsch
Untertitel: Deutsch
Jahr: 2021
Genres: Sentimentales Drama, Abenteur, Alltagsleben, Romanze
Auflösung: 3840x2160
Format: MKV
Videocodec: AV1
Farbtiefe: 10bit
Audiocodec: DTS-HD & Dolby TrueHD | EAC3
Releaser: Anime Otakus
Publisher: LEONINE Anime
Hoster: DDownload | Uploaded

Mediainfo:
Code:
Format                                   : Matroska
Format version                           : Version 4
File size                                : 13.2 GiB
Duration                                 : 2 h 20 min
Overall bit rate mode                    : Variable
Overall bit rate                         : 13.4 Mb/s
Encoded date                             : UTC 2022-06-04 10:25:14
Writing application                      : mkvmerge v63.0.0 ('Everything') 64-bit
Writing library                          : libebml v1.4.2 + libmatroska v1.6.4 / Lavf59.23.100
Released by                              : Anime Otakus
Version                                  : 1.1

Video
ID                                       : 1
Format                                   : AV1
Format/Info                              : AOMedia Video 1
Format profile                           : [email protected]
HDR format                               : SMPTE ST 2086, HDR10 compatible
Codec ID                                 : V_AV1
Duration                                 : 2 h 20 min
Bit rate                                 : 6 618 kb/s
Width                                    : 3 840 pixels
Height                                   : 2 160 pixels
Display aspect ratio                     : 16:9
Frame rate mode                          : Constant
Frame rate                               : 23.976 (24000/1001) FPS
Color space                              : YUV
Chroma subsampling                       : 4:2:0
Bit depth                                : 10 bits
Bits/(Pixel*Frame)                       : 0.033
Stream size                              : 6.50 GiB (49%)
Default                                  : No
Forced                                   : No
Color range                              : Limited
Color primaries                          : BT.2020
Transfer characteristics                 : PQ
Matrix coefficients                      : BT.2020 non-constant
Mastering display color primaries        : R: x=0.708000 y=0.292000, G: x=0.170000 y=0.797000, B: x=0.046000 y=0.131000, White point: x=0.329000 y=0.312700
Mastering display luminance              : min: 0.0001 cd/m2, max: 1000 cd/m2
Maximum Content Light Level              : 868
Maximum Frame-Average Light Level        : 91

Audio #1
ID                                       : 2
Format                                   : DTS XLL
Format/Info                              : Digital Theater Systems
Commercial name                          : DTS-HD Master Audio
Codec ID                                 : A_DTS
Duration                                 : 2 h 20 min
Bit rate mode                            : Variable
Channel(s)                               : 6 channels
Channel layout                           : C L R Ls Rs LFE
Sampling rate                            : 48.0 kHz
Frame rate                               : 93.750 FPS (512 SPF)
Bit depth                                : 24 bits
Compression mode                         : Lossless
Language                                 : German
Default                                  : Yes
Forced                                   : No

Audio #2
ID                                       : 3
Format                                   : MLP FBA 16-ch
Format/Info                              : Meridian Lossless Packing FBA with 16-channel presentation
Commercial name                          : Dolby TrueHD with Dolby Atmos
Codec ID                                 : A_TRUEHD
Duration                                 : 2 h 20 min
Bit rate mode                            : Variable
Maximum bit rate                         : 4 476 kb/s
Channel(s)                               : 8 channels
Channel layout                           : L R C LFE Ls Rs Lb Rb
Sampling rate                            : 48.0 kHz
Frame rate                               : 1 200.000 FPS (40 SPF)
Bit depth                                : 24 bits
Compression mode                         : Lossless
Language                                 : Japanese
Default                                  : No
Forced                                   : No
Number of dynamic objects                : 13
Bed channel count                        : 1 channel
Bed channel configuration                : LFE

Text #1
ID                                       : 4
Format                                   : PGS
Muxing mode                              : zlib
Codec ID                                 : S_HDMV/PGS
Codec ID/Info                            : Picture based subtitle format used on BDs/HD-DVDs
Duration                                 : 2 h 17 min
Bit rate                                 : 21.9 kb/s
Count of elements                        : 2546
Stream size                              : 21.6 MiB (0%)
Default                                  : Yes
Forced                                   : No

Text #2
ID                                       : 5
Format                                   : PGS
Muxing mode                              : zlib
Codec ID                                 : S_HDMV/PGS
Codec ID/Info                            : Picture based subtitle format used on BDs/HD-DVDs
Duration                                 : 2 h 9 min
Bit rate                                 : 1 403 b/s
Count of elements                        : 208
Stream size                              : 1.30 MiB (0%)
Default                                  : No
Forced                                   : No

Menu #1
00:00:00.000                             : 00:00:00.000
00:10:56.364                             : 00:10:56.364
00:20:44.117                             : 00:20:44.117
00:30:03.468                             : 00:30:03.468
00:42:24.208                             : 00:42:24.208
00:52:47.706                             : 00:52:47.706
01:03:10.870                             : 01:03:10.870
01:12:04.445                             : 01:12:04.445
01:23:35.677                             : 01:23:35.677
01:32:53.401                             : 01:32:53.401
01:43:43.175                             : 01:43:43.175
01:51:33.937                             : 01:51:33.937
02:02:19.665                             : 02:02:19.665
02:13:41.638                             : 02:13:41.638

Menu #2
00:00:00.000                             : 00:00:00.000
00:10:56.364                             : 00:10:56.364
00:20:44.117                             : 00:20:44.117
00:30:03.468                             : 00:30:03.468
00:42:24.208                             : 00:42:24.208
00:52:47.706                             : 00:52:47.706
01:03:10.870                             : 01:03:10.870
01:12:04.445                             : 01:12:04.445
01:23:35.677                             : 01:23:35.677
01:32:53.401                             : 01:32:53.401
01:43:43.175                             : 01:43:43.175
01:51:33.937                             : 01:51:33.937
02:02:19.665                             : 02:02:19.665
02:13:41.638                             : 02:13:41.638
Code:
Format                                   : Matroska
Format version                           : Version 4
File size                                : 7.76 GiB
Duration                                 : 2 h 20 min
Overall bit rate                         : 7 910 kb/s
Encoded date                             : UTC 2022-06-05 14:30:20
Writing application                      : mkvmerge v59.0.0 ('Shining Star') 64-bit
Writing library                          : libebml v1.4.2 + libmatroska v1.6.4 / Lavf59.23.100
Released by                              : Anime Otakus
Version                                  : 1.1

Video
ID                                       : 1
Format                                   : AV1
Format/Info                              : AOMedia Video 1
Format profile                           : [email protected]
HDR format                               : SMPTE ST 2086, HDR10 compatible
Codec ID                                 : V_AV1
Duration                                 : 2 h 20 min
Bit rate                                 : 6 618 kb/s
Width                                    : 3 840 pixels
Height                                   : 2 160 pixels
Display aspect ratio                     : 16:9
Frame rate mode                          : Constant
Frame rate                               : 23.976 (24000/1001) FPS
Color space                              : YUV
Chroma subsampling                       : 4:2:0
Bit depth                                : 10 bits
Bits/(Pixel*Frame)                       : 0.033
Stream size                              : 6.50 GiB (84%)
Default                                  : No
Forced                                   : No
Color range                              : Limited
Color primaries                          : BT.2020
Transfer characteristics                 : PQ
Matrix coefficients                      : BT.2020 non-constant
Mastering display color primaries        : R: x=0.708000 y=0.292000, G: x=0.170000 y=0.797000, B: x=0.046000 y=0.131000, White point: x=0.329000 y=0.312700
Mastering display luminance              : min: 0.0001 cd/m2, max: 1000 cd/m2
Maximum Content Light Level              : 868
Maximum Frame-Average Light Level        : 91

Audio #1
ID                                       : 2
Format                                   : E-AC-3
Format/Info                              : Enhanced AC-3
Commercial name                          : Dolby Digital Plus
Codec ID                                 : A_EAC3
Duration                                 : 2 h 20 min
Bit rate mode                            : Constant
Bit rate                                 : 640 kb/s
Channel(s)                               : 6 channels
Channel layout                           : L R C LFE Ls Rs
Sampling rate                            : 48.0 kHz
Frame rate                               : 31.250 FPS (1536 SPF)
Bit depth                                : 32 bits
Compression mode                         : Lossy
Stream size                              : 643 MiB (8%)
Language                                 : German
Service kind                             : Complete Main
Default                                  : Yes
Forced                                   : No

Audio #2
ID                                       : 3
Format                                   : E-AC-3
Format/Info                              : Enhanced AC-3
Commercial name                          : Dolby Digital Plus
Codec ID                                 : A_EAC3
Duration                                 : 2 h 20 min
Bit rate mode                            : Constant
Bit rate                                 : 640 kb/s
Channel(s)                               : 6 channels
Channel layout                           : L R C LFE Ls Rs
Sampling rate                            : 48.0 kHz
Frame rate                               : 31.250 FPS (1536 SPF)
Bit depth                                : 32 bits
Compression mode                         : Lossy
Stream size                              : 643 MiB (8%)
Language                                 : Japanese
Service kind                             : Complete Main
Default                                  : No
Forced                                   : No

Text #1
ID                                       : 4
Format                                   : PGS
Muxing mode                              : zlib
Codec ID                                 : S_HDMV/PGS
Codec ID/Info                            : Picture based subtitle format used on BDs/HD-DVDs
Duration                                 : 2 h 17 min
Bit rate                                 : 21.9 kb/s
Count of elements                        : 2546
Stream size                              : 21.6 MiB (0%)
Language                                 : German
Default                                  : Yes
Forced                                   : No

Text #2
ID                                       : 5
Format                                   : PGS
Muxing mode                              : zlib
Codec ID                                 : S_HDMV/PGS
Codec ID/Info                            : Picture based subtitle format used on BDs/HD-DVDs
Duration                                 : 2 h 9 min
Bit rate                                 : 1 403 b/s
Count of elements                        : 208
Stream size                              : 1.30 MiB (0%)
Language                                 : German
Default                                  : No
Forced                                   : No

Menu #1
00:00:00.000                             : 00:00:00.000
00:10:56.364                             : 00:10:56.364
00:20:44.117                             : 00:20:44.117
00:30:03.468                             : 00:30:03.468
00:42:24.208                             : 00:42:24.208
00:52:47.706                             : 00:52:47.706
01:03:10.870                             : 01:03:10.870
01:12:04.445                             : 01:12:04.445
01:23:35.677                             : 01:23:35.677
01:32:53.401                             : 01:32:53.401
01:43:43.175                             : 01:43:43.175
01:51:33.937                             : 01:51:33.937
02:02:19.665                             : 02:02:19.665
02:13:41.638                             : 02:13:41.638

Menu #2
00:00:00.000                             : 00:00:00.000
00:10:56.364                             : 00:10:56.364
00:20:44.117                             : 00:20:44.117
00:30:03.468                             : 00:30:03.468
00:42:24.208                             : 00:42:24.208
00:52:47.706                             : 00:52:47.706
01:03:10.870                             : 01:03:10.870
01:12:04.445                             : 01:12:04.445
01:23:35.677                             : 01:23:35.677
01:32:53.401                             : 01:32:53.401
01:43:43.175                             : 01:43:43.175
01:51:33.937                             : 01:51:33.937
02:02:19.665                             : 02:02:19.665
02:13:41.638                             : 02:13:41.638

Status:
2160p DTS-HD & TrueHD:
9C3A42958C.png

2160p EAC3:
8C442CB5FB.png


To view the content, you need to Sign In or Register.