Welcome to our Community
Wanting to join the rest of our members? Feel free to sign up today.
Sign up

Why the Hell are You Here, Teacher!? + Bonus | Nande Koko ni Sensei ga!? [Ger-Dub][720p|1080p][WebRip] - AoD

Azugo

H͓̽u͓̽g͓̽o͓̽ ͓̽&͓̽ ͓̽A͓̽z͓̽u͓̽r͓̽a͓̽
Otaku Gott
Uploader
25 März 2020
3.600
36.436
118

Why the Hell are You Here, Teacher!? | Nande Koko ni Sensei ga!?



EwiHd1p.jpg



KumRy1U.png

anisearch.com schrieb:
»Nande Koko ni Sensei ga!?«, die Anime-Adaption zu Soborous gleichnamigem Manga, dreht sich um den Oberschüler Ichirou Satou. Dieser ist ein echter Pechvogel – egal, wohin er geht, überall trifft er auf seine superstrenge Lehrerin Kana Kojima. Die hat ihren Beinamen „Kojima, die Teufelin“ auch nicht nur zum Spaß abbekommen, macht sie doch selbst mit den schlimmsten Delinquenten kurzen Prozess und wird von der ganzen Schülerschaft gefürchtet. Ihr höllisch strenges Auftreten ist allerdings nicht das Einzige, was sie zur Teufelin macht, denn sie sieht zudem auch noch teuflisch gut aus!

Da ist es auch nicht verwunderlich, dass bei Ichirou die Hormone verrückt spielen, wenn er und seine hübsche Lehrerin in immer wieder neue verrückte und äußerst suggestive Situationen geraten. Vielleicht ist dieser Pechvogel ja doch nicht so unglücklich, wie man zunächst annimmt …

Quelle: https://www.anisearch.de/anime/13909


eLhoHQ8.png


Spieldauer: ~12min
Genre: Romantische Komödie
Nebengenres: Ecchi, Komödie, Romanze
Jahr: 2019
Sprache: Deutsch
Größe pro Folge: ~150mb, ~500mb
Episodenanzahl: 12/12 + (Bonus Episode 13)
Format: MKV
Auflösung: 720p (16:9), 1080p (16:9)
Videocodec: H264 (AVC)
Audiocodec: AAC
Releasegruppe: Hugo
Hoster: ddownload, Rapidgator


99Ls7cm.png

Code:
[color=Turquoise]Format                                   : Matroska
Format version                           : Version 4
File size                                : 145 MiB
Duration                                 : 11 min 31 s
Overall bit rate                         : 1 759 kb/s
Encoded date                             : UTC 2021-02-24 16:30:49
Writing application                      : mkvmerge v53.0.0 ('Fool's Gold') 64-bit
Writing library                          : libebml v1.4.1 + libmatroska v1.6.2

Video
ID                                       : 1
Format                                   : AVC
Format/Info                              : Advanced Video Codec
Format profile                           : High@L4
Format settings                          : CABAC / 9 Ref Frames
Format settings, CABAC                   : Yes
Format settings, Reference frames        : 9 frames
Codec ID                                 : V_MPEG4/ISO/AVC
Duration                                 : 11 min 31 s
Bit rate                                 : 1 501 kb/s
Width                                    : 1 280 pixels
Height                                   : 720 pixels
Display aspect ratio                     : 16:9
Frame rate mode                          : Constant
Frame rate                               : 23.976 (24000/1001) FPS
Color space                              : YUV
Chroma subsampling                       : 4:2:0
Bit depth                                : 8 bits
Scan type                                : Progressive
Bits/(Pixel*Frame)                       : 0.068
Stream size                              : 124 MiB (85%)
Writing library                          : x264 core 157 r2969 d4099dd
Encoding settings                        : cabac=1 / ref=9 / deblock=1:0:-1 / analyse=0x3:0x133 / me=umh / subme=10 / psy=1 / psy_rd=0.60:0.10 / mixed_ref=1 / me_range=24 / chroma_me=1 / trellis=2 / 8x8dct=1 / cqm=0 / deadzone=21,11 / fast_pskip=1 / chroma_qp_offset=-3 / threads=12 / lookahead_threads=3 / sliced_threads=0 / nr=0 / decimate=0 / interlaced=0 / bluray_compat=0 / constrained_intra=0 / bframes=16 / b_pyramid=2 / b_adapt=2 / b_bias=0 / direct=3 / weightb=1 / open_gop=0 / weightp=2 / keyint=192 / keyint_min=19 / scenecut=0 / intra_refresh=0 / rc_lookahead=80 / rc=crf / mbtree=1 / crf=17.0 / qcomp=0.60 / qpmin=0 / qpmax=69 / qpstep=4 / vbv_maxrate=4096 / vbv_bufsize=10240 / crf_max=0.0 / nal_hrd=none / filler=0 / ip_ratio=1.40 / aq=3:1.10
Default                                  : Yes
Forced                                   : No

Audio
ID                                       : 2
Format                                   : AAC LC
Format/Info                              : Advanced Audio Codec Low Complexity
Codec ID                                 : A_AAC-2
Duration                                 : 11 min 31 s
Bit rate                                 : 256 kb/s
Channel(s)                               : 2 channels
Channel layout                           : L R
Sampling rate                            : 48.0 kHz
Frame rate                               : 46.875 FPS (1024 SPF)
Compression mode                         : Lossy
Delay relative to video                  : -83 ms
Stream size                              : 21.1 MiB (15%)
Default                                  : Yes
Forced                                   : No

[/color]
Code:
[color=Turquoise]Format                                   : Matroska
Format version                           : Version 4
File size                                : 538 MiB
Duration                                 : 11 min 31 s
Overall bit rate                         : 6 530 kb/s
Encoded date                             : UTC 2021-02-24 16:30:45
Writing application                      : mkvmerge v53.0.0 ('Fool's Gold') 64-bit
Writing library                          : libebml v1.4.1 + libmatroska v1.6.2

Video
ID                                       : 1
Format                                   : AVC
Format/Info                              : Advanced Video Codec
Format profile                           : High@L5
Format settings                          : CABAC / 12 Ref Frames
Format settings, CABAC                   : Yes
Format settings, Reference frames        : 12 frames
Codec ID                                 : V_MPEG4/ISO/AVC
Duration                                 : 11 min 31 s
Bit rate                                 : 6 272 kb/s
Width                                    : 1 920 pixels
Height                                   : 1 080 pixels
Display aspect ratio                     : 16:9
Frame rate mode                          : Constant
Frame rate                               : 23.976 (24000/1001) FPS
Color space                              : YUV
Chroma subsampling                       : 4:2:0
Bit depth                                : 8 bits
Scan type                                : Progressive
Bits/(Pixel*Frame)                       : 0.126
Stream size                              : 517 MiB (96%)
Writing library                          : x264 core 157 r2969 d4099dd
Encoding settings                        : cabac=1 / ref=12 / deblock=1:0:-1 / analyse=0x3:0x133 / me=umh / subme=10 / psy=1 / psy_rd=0.70:0.15 / mixed_ref=1 / me_range=24 / chroma_me=1 / trellis=2 / 8x8dct=1 / cqm=0 / deadzone=21,11 / fast_pskip=1 / chroma_qp_offset=-3 / threads=24 / lookahead_threads=6 / sliced_threads=0 / nr=0 / decimate=0 / interlaced=0 / bluray_compat=0 / constrained_intra=0 / bframes=16 / b_pyramid=2 / b_adapt=2 / b_bias=0 / direct=3 / weightb=1 / open_gop=0 / weightp=2 / keyint=192 / keyint_min=19 / scenecut=0 / intra_refresh=0 / rc_lookahead=80 / rc=crf / mbtree=1 / crf=15.0 / qcomp=0.60 / qpmin=0 / qpmax=69 / qpstep=4 / vbv_maxrate=20480 / vbv_bufsize=40960 / crf_max=0.0 / nal_hrd=none / filler=0 / ip_ratio=1.40 / aq=3:1.10
Default                                  : Yes
Forced                                   : No

Audio
ID                                       : 2
Format                                   : AAC LC
Format/Info                              : Advanced Audio Codec Low Complexity
Codec ID                                 : A_AAC-2
Duration                                 : 11 min 31 s
Bit rate                                 : 256 kb/s
Channel(s)                               : 2 channels
Channel layout                           : L R
Sampling rate                            : 48.0 kHz
Frame rate                               : 46.875 FPS (1024 SPF)
Compression mode                         : Lossy
Delay relative to video                  : -83 ms
Stream size                              : 21.1 MiB (4%)
Default                                  : Yes
Forced                                   : No

[/color]



Status:
cooltext396117611400625-png.30739

7A4481B323.png

cooltext3961176114006251-png.30741

9A4163EDFC.png

To view the content, you need to Sign In or Register.

 
Zuletzt bearbeitet: