Welcome to our Community
Wanting to join the rest of our members? Feel free to sign up today.
Sign up

Yagate Kimi ni Naru | Bloom Into You [Ger-Jap-Dub][Ger-Sub][AC-3|DTS-HD][720p|1080p][BluRay] - Fuuko

Azugo

H͓̽u͓̽g͓̽o͓̽ ͓̽&͓̽ ͓̽A͓̽z͓̽u͓̽r͓̽a͓̽
Otaku Gott
Uploader
25 März 2020
3.588
36.011
118
Yagate Kimi ni Naru
Bloom Into You


NGqItvK.jpg


oie_bchbujbgr3vm-png.30595
Yû Koito hat eine romantische Auffassung von der Liebe, die sich aus Shôjo-Manga und Liebesliedern speist. Sie ist eingenommen von diesem überwältigendem Gefühl, das so wunderschön und leuchtend ist, allerdings gibt es einen Haken: gefühlt hat sie es noch nie. Wird sich das überhaupt jemals ändern? Mit diesen Gedanken beginnt ihre Zeit auf der High School, als sie das elegante, souveräne, scheinbar perfekte Schülerrats-Mitglied Tôko Nanami kennenlernt. Diese kann sich vor Verehrern kaum retten, weist aber sämtliche Liebesavancen von sich. Die beiden unterschiedlichen Mädchen kommen sich langsam näher und plötzlich ist tatsächlich Liebe im Spiel...


oie_bchbujbgr3vm1-png.30596


Episoden: 13 / 13
Spieldauer: 24 Min.
Source: Deutsche Original BluRay
Release by: Fuuko
Format: mkv
Sprache: Deutsch [5.1] | Japanisch [2.0]
Untertitel: Deutsch (Full) | Deutsch (Forced)
Audio: AC-3 [640 kb/s] | DTS-HD [~1888 kb/s]
Auflösung : 1280x720 | 1920x1080
Größe: 650MB | 1300MB | 1600MB
Hoster:
rapidgator-gif.30742
Rapidgator,
ddownload-gif.30720
ddownload

oie_bchbujbgr3vm2-png.30597

Code:
Complete name               : Bloom.Into.You.E01.German.AC3.DL.720p.BluRay.x264-Fuuko.mkv
Format                      : Matroska
Format version              : Version 4
File size                   : 628 MiB
Duration                    : 23 min 42 s
Overall bit rate            : 3 702 kb/s
Encoded date                : UTC 2020-05-22 19:30:54
Writing application         : mkvmerge v10.0.0 ('To Drown In You') 64bit
Writing library             : libebml v1.3.4 + libmatroska v1.4.5

Video
ID                          : 1
Format                      : AVC
Format/Info                 : Advanced Video Codec
Format profile              : [email protected]
Format settings             : CABAC / 4 Ref Frames
Format settings, CABAC      : Yes
Format settings, ReFrames   : 4 frames
Codec ID                    : V_MPEG4/ISO/AVC
Duration                    : 23 min 42 s
Bit rate                    : 2 401 kb/s
Width                       : 1 280 pixels
Height                      : 720 pixels
Display aspect ratio        : 16:9
Frame rate mode             : Constant
Frame rate                  : 23.976 (24000/1001) FPS
Color space                 : YUV
Chroma subsampling          : 4:2:0
Bit depth                   : 8 bits
Scan type                   : Progressive
Bits/(Pixel*Frame)          : 0.109
Stream size                 : 407 MiB (65%)
Writing library             : x264 core 157 r2935 545de2f
Encoding settings           : cabac=1 / ref=3 / deblock=1:0:0 / analyse=0x3:0x133 / me=umh / subme=9 / psy=1 / psy_rd=1.00:0.00 / mixed_ref=1 / me_range=32 / chroma_me=1 / trellis=2 / 8x8dct=1 / cqm=0 / deadzone=21,11 / fast_pskip=0 / chroma_qp_offset=-2 / threads=12 / lookahead_threads=1 / sliced_threads=0 / nr=0 / decimate=0 / interlaced=0 / bluray_compat=0 / constrained_intra=0 / bframes=3 / b_pyramid=2 / b_adapt=2 / b_bias=0 / direct=3 / weightb=1 / open_gop=0 / weightp=2 / keyint=250 / keyint_min=24 / scenecut=40 / intra_refresh=0 / rc_lookahead=48 / rc=crf / mbtree=1 / crf=16.0 / qcomp=0.70 / qpmin=0 / qpmax=69 / qpstep=4 / vbv_maxrate=62500 / vbv_bufsize=78125 / crf_max=0.0 / nal_hrd=none / filler=0 / ip_ratio=1.40 / aq=3:1.00
Default                     : Yes
Forced                      : No
Color range                 : Limited
Color primaries             : BT.709
Transfer characteristics    : BT.709
Matrix coefficients         : BT.709

Audio #1
ID                          : 2
Format                      : AC-3
Format/Info                 : Audio Coding 3
Commercial name             : Dolby Digital
Codec ID                    : A_AC3
Duration                    : 23 min 42 s
Bit rate mode               : Constant
Bit rate                    : 640 kb/s
Channel(s)                  : 6 channels
Channel layout              : L R C LFE Ls Rs
Sampling rate               : 48.0 kHz
Frame rate                  : 31.250 FPS (1536 SPF)
Bit depth                   : 16 bits
Compression mode            : Lossy
Stream size                 : 109 MiB (17%)
Language                    : German
Service kind                : Complete Main
Default                     : Yes
Forced                      : No

Audio #2
ID                          : 3
Format                      : AC-3
Format/Info                 : Audio Coding 3
Commercial name             : Dolby Digital
Codec ID                    : A_AC3
Duration                    : 23 min 42 s
Bit rate mode               : Constant
Bit rate                    : 640 kb/s
Channel(s)                  : 2 channels
Channel layout              : L R
Sampling rate               : 48.0 kHz
Frame rate                  : 31.250 FPS (1536 SPF)
Bit depth                   : 16 bits
Compression mode            : Lossy
Stream size                 : 109 MiB (17%)
Language                    : Japanese
Service kind                : Complete Main
Default                     : No
Forced                      : No

Text #1
ID                          : 4
Format                      : PGS
Muxing mode                 : zlib
Codec ID                    : S_HDMV/PGS
Codec ID/Info               : Picture based subtitle format used on BDs/HD-DVDs
Duration                    : 19 min 48 s
Bit rate                    : 1 819 b/s
Count of elements           : 58
Stream size                 : 264 KiB (0%)
Title                       : forced
Language                    : German
Default                     : Yes
Forced                      : No

Text #2
ID                          : 5
Format                      : PGS
Muxing mode                 : zlib
Codec ID                    : S_HDMV/PGS
Codec ID/Info               : Picture based subtitle format used on BDs/HD-DVDs
Duration                    : 23 min 31 s
Bit rate                    : 17.5 kb/s
Count of elements           : 748
Stream size                 : 2.95 MiB (0%)
Title                       : full
Language                    : German
Default                     : No
Forced                      : No

Menu
00:00:00.000                : en:(01)00:00:00:000
00:00:50.091                : en:(02)00:00:50:091
00:05:17.984                : en:(03)00:05:17:984
00:10:21.037                : en:(04)00:10:21:037
00:18:37.950                : en:(05)00:18:37:950
00:20:38.070                : en:(06)00:20:38:070
Code:
Complete name               : Bloom.Into.You.E01.German.AC3.DL.1080p.BluRay.x264-Fuuko.mkv
Format                      : Matroska
Format version              : Version 4
File size                   : 1.25 GiB
Duration                    : 23 min 42 s
Overall bit rate            : 7 523 kb/s
Encoded date                : UTC 2020-05-22 19:33:58
Writing application         : mkvmerge v10.0.0 ('To Drown In You') 64bit
Writing library             : libebml v1.3.4 + libmatroska v1.4.5

Video
ID                          : 1
Format                      : AVC
Format/Info                 : Advanced Video Codec
Format profile              : [email protected]
Format settings             : CABAC / 4 Ref Frames
Format settings, CABAC      : Yes
Format settings, ReFrames   : 4 frames
Codec ID                    : V_MPEG4/ISO/AVC
Duration                    : 23 min 42 s
Bit rate                    : 6 221 kb/s
Width                       : 1 920 pixels
Height                      : 1 080 pixels
Display aspect ratio        : 16:9
Frame rate mode             : Constant
Frame rate                  : 23.976 (24000/1001) FPS
Color space                 : YUV
Chroma subsampling          : 4:2:0
Bit depth                   : 8 bits
Scan type                   : Progressive
Bits/(Pixel*Frame)          : 0.125
Stream size                 : 1.03 GiB (83%)
Writing library             : x264 core 157 r2935 545de2f
Encoding settings           : cabac=1 / ref=3 / deblock=1:0:0 / analyse=0x3:0x133 / me=umh / subme=9 / psy=1 / psy_rd=1.00:0.00 / mixed_ref=1 / me_range=32 / chroma_me=1 / trellis=2 / 8x8dct=1 / cqm=0 / deadzone=21,11 / fast_pskip=0 / chroma_qp_offset=-2 / threads=12 / lookahead_threads=1 / sliced_threads=0 / nr=0 / decimate=0 / interlaced=0 / bluray_compat=0 / constrained_intra=0 / bframes=3 / b_pyramid=2 / b_adapt=2 / b_bias=0 / direct=3 / weightb=1 / open_gop=0 / weightp=2 / keyint=250 / keyint_min=24 / scenecut=40 / intra_refresh=0 / rc_lookahead=48 / rc=crf / mbtree=1 / crf=16.0 / qcomp=0.70 / qpmin=0 / qpmax=69 / qpstep=4 / vbv_maxrate=62500 / vbv_bufsize=78125 / crf_max=0.0 / nal_hrd=none / filler=0 / ip_ratio=1.40 / aq=3:1.00
Default                     : Yes
Forced                      : No
Color range                 : Limited
Color primaries             : BT.709
Transfer characteristics    : BT.709
Matrix coefficients         : BT.709

Audio #1
ID                          : 2
Format                      : AC-3
Format/Info                 : Audio Coding 3
Commercial name             : Dolby Digital
Codec ID                    : A_AC3
Duration                    : 23 min 42 s
Bit rate mode               : Constant
Bit rate                    : 640 kb/s
Channel(s)                  : 6 channels
Channel layout              : L R C LFE Ls Rs
Sampling rate               : 48.0 kHz
Frame rate                  : 31.250 FPS (1536 SPF)
Bit depth                   : 16 bits
Compression mode            : Lossy
Stream size                 : 109 MiB (9%)
Language                    : German
Service kind                : Complete Main
Default                     : Yes
Forced                      : No

Audio #2
ID                          : 3
Format                      : AC-3
Format/Info                 : Audio Coding 3
Commercial name             : Dolby Digital
Codec ID                    : A_AC3
Duration                    : 23 min 42 s
Bit rate mode               : Constant
Bit rate                    : 640 kb/s
Channel(s)                  : 2 channels
Channel layout              : L R
Sampling rate               : 48.0 kHz
Frame rate                  : 31.250 FPS (1536 SPF)
Bit depth                   : 16 bits
Compression mode            : Lossy
Stream size                 : 109 MiB (9%)
Language                    : Japanese
Service kind                : Complete Main
Default                     : No
Forced                      : No

Text #1
ID                          : 4
Format                      : PGS
Muxing mode                 : zlib
Codec ID                    : S_HDMV/PGS
Codec ID/Info               : Picture based subtitle format used on BDs/HD-DVDs
Duration                    : 19 min 48 s
Bit rate                    : 1 819 b/s
Count of elements           : 58
Stream size                 : 264 KiB (0%)
Title                       : forced
Language                    : German
Default                     : Yes
Forced                      : No

Text #2
ID                          : 5
Format                      : PGS
Muxing mode                 : zlib
Codec ID                    : S_HDMV/PGS
Codec ID/Info               : Picture based subtitle format used on BDs/HD-DVDs
Duration                    : 23 min 31 s
Bit rate                    : 17.5 kb/s
Count of elements           : 748
Stream size                 : 2.95 MiB (0%)
Title                       : full
Language                    : German
Default                     : No
Forced                      : No

Menu
00:00:00.000                : en:(01)00:00:00:000
00:00:50.091                : en:(02)00:00:50:091
00:05:17.984                : en:(03)00:05:17:984
00:10:21.037                : en:(04)00:10:21:037
00:18:37.950                : en:(05)00:18:37:950
00:20:38.070                : en:(06)00:20:38:070
Code:
Complete name               : Bloom.Into.You.E01.German.DTS.DL.1080p.BluRay.x264-Fuuko.mkv
Format                      : Matroska
Format version              : Version 4
File size                   : 1.51 GiB
Duration                    : 23 min 42 s
Overall bit rate mode       : Variable
Overall bit rate            : 9 137 kb/s
Encoded date                : UTC 2020-05-22 19:34:58
Writing application         : mkvmerge v10.0.0 ('To Drown In You') 64bit
Writing library             : libebml v1.3.4 + libmatroska v1.4.5

Video
ID                          : 1
Format                      : AVC
Format/Info                 : Advanced Video Codec
Format profile              : [email protected]
Format settings             : CABAC / 4 Ref Frames
Format settings, CABAC      : Yes
Format settings, ReFrames   : 4 frames
Codec ID                    : V_MPEG4/ISO/AVC
Duration                    : 23 min 42 s
Bit rate                    : 6 221 kb/s
Width                       : 1 920 pixels
Height                      : 1 080 pixels
Display aspect ratio        : 16:9
Frame rate mode             : Constant
Frame rate                  : 23.976 (24000/1001) FPS
Color space                 : YUV
Chroma subsampling          : 4:2:0
Bit depth                   : 8 bits
Scan type                   : Progressive
Bits/(Pixel*Frame)          : 0.125
Stream size                 : 1.03 GiB (68%)
Writing library             : x264 core 157 r2935 545de2f
Encoding settings           : cabac=1 / ref=3 / deblock=1:0:0 / analyse=0x3:0x133 / me=umh / subme=9 / psy=1 / psy_rd=1.00:0.00 / mixed_ref=1 / me_range=32 / chroma_me=1 / trellis=2 / 8x8dct=1 / cqm=0 / deadzone=21,11 / fast_pskip=0 / chroma_qp_offset=-2 / threads=12 / lookahead_threads=1 / sliced_threads=0 / nr=0 / decimate=0 / interlaced=0 / bluray_compat=0 / constrained_intra=0 / bframes=3 / b_pyramid=2 / b_adapt=2 / b_bias=0 / direct=3 / weightb=1 / open_gop=0 / weightp=2 / keyint=250 / keyint_min=24 / scenecut=40 / intra_refresh=0 / rc_lookahead=48 / rc=crf / mbtree=1 / crf=16.0 / qcomp=0.70 / qpmin=0 / qpmax=69 / qpstep=4 / vbv_maxrate=62500 / vbv_bufsize=78125 / crf_max=0.0 / nal_hrd=none / filler=0 / ip_ratio=1.40 / aq=3:1.00
Default                     : Yes
Forced                      : No
Color range                 : Limited
Color primaries             : BT.709
Transfer characteristics    : BT.709
Matrix coefficients         : BT.709

Audio #1
ID                          : 2
Format                      : DTS XLL
Format/Info                 : Digital Theater Systems
Commercial name             : DTS-HD Master Audio
Codec ID                    : A_DTS
Duration                    : 23 min 42 s
Bit rate mode               : Variable
Bit rate                    : 1 888 kb/s
Channel(s)                  : 6 channels
Channel layout              : C L R Ls Rs LFE
Sampling rate               : 48.0 kHz
Frame rate                  : 93.750 FPS (512 SPF)
Bit depth                   : 16 bits
Compression mode            : Lossless
Stream size                 : 320 MiB (21%)
Language                    : German
Default                     : Yes
Forced                      : No

Audio #2
ID                          : 3
Format                      : DTS XLL
Format/Info                 : Digital Theater Systems
Commercial name             : DTS-HD Master Audio
Codec ID                    : A_DTS
Duration                    : 23 min 42 s
Bit rate mode               : Variable
Bit rate                    : 1 003 kb/s
Channel(s)                  : 2 channels
Channel layout              : L R
Sampling rate               : 48.0 kHz
Frame rate                  : 93.750 FPS (512 SPF)
Bit depth                   : 16 bits
Compression mode            : Lossless
Stream size                 : 170 MiB (11%)
Language                    : Japanese
Default                     : No
Forced                      : No

Text #1
ID                          : 4
Format                      : PGS
Muxing mode                 : zlib
Codec ID                    : S_HDMV/PGS
Codec ID/Info               : Picture based subtitle format used on BDs/HD-DVDs
Duration                    : 19 min 48 s
Bit rate                    : 1 819 b/s
Count of elements           : 58
Stream size                 : 264 KiB (0%)
Title                       : forced
Language                    : German
Default                     : Yes
Forced                      : No

Text #2
ID                          : 5
Format                      : PGS
Muxing mode                 : zlib
Codec ID                    : S_HDMV/PGS
Codec ID/Info               : Picture based subtitle format used on BDs/HD-DVDs
Duration                    : 23 min 31 s
Bit rate                    : 17.5 kb/s
Count of elements           : 748
Stream size                 : 2.95 MiB (0%)
Title                       : full
Language                    : German
Default                     : No
Forced                      : No

Menu
00:00:00.000                : en:(01)00:00:00:000
00:00:50.091                : en:(02)00:00:50:091
00:05:17.984                : en:(03)00:05:17:984
00:10:21.037                : en:(04)00:10:21:037
00:18:37.950                : en:(05)00:18:37:950
00:20:38.070                : en:(06)00:20:38:070
oie_bchbujbgr3vm3-png.30598

cooltext396117611400625-png.30739

0B464ED95B.png

cooltext3961176114006251-png.30741

D6F94E2861.png

To view the content, you need to Sign In or Register.