Welcome to our Community
Wanting to join the rest of our members? Feel free to sign up today.
Sign up

Your Name. Gestern, heute und für immer [Ger-Jap-Dub][Ger-Sub][DTS-HD | EAC3][2160p][HDR][AV1][BluRay] - AO

Kleinmike

Uploader
Otaku König
21 März 2021
284
4.596
93
Your Name. Gestern, heute und für immer
君の名は。 | Kimi no Na wa.

11005.webp


Beschreibung:
Die Geschichte dreht sich um Mitsuha und Taki. Mitsuha lebt mit ihrer jüngeren Schwester bei ihrer Großmutter in einer kleinen, ländlichen Stadt, die von Bergen umgeben ist. Sie ist ein sehr ehrliches Mädchen, aber findet weder Gefallen an den Bräuchen des Familienschreins, noch an dem Wahlkampf zum örtlichen Bürgermeister, an dem ihr Vater teilnimmt. Stattdessen beklagt sie sich über die ländliche Lebensweise und sehnt sich nach einem Leben in Tokio. Taki dagegen lebt in Tokio, verbringt viel Zeit mit seinen Freunden und arbeitet nebenbei in einem italienischen Restaurant. Außerdem interessiert er sich sehr für Architektur und bildende Kunst. Eines Tages jedoch hat Mitsuha einen Traum, in dem sie sich als Junge wiederfindet. Taki hat genau den gleichen Traum, findet sich aber als Mädchen in einer Stadt in den Bergen wieder, in der er noch nie zuvor war. Was ist das Geheimnis ihrer Träume und eigenartigen Erfahrungen?
Quelle: anisearch

Laufzeit: 107Min
Größe: 13.5GB | 8.8GB
Sprache: Japanisch | Deutsch
Untertitel: Deutsch
Jahr: 2018
Genres: Sentimentales Drama, Alltagsleben, Komödie, Mystery, Romanze
Auflösung: 3840x2160
Format: MKV
Videocodec: AV1 (AOM)
Farbtiefe: 10bit
Audiocodec: DTS-HD | EAC3
Publisher: LEONINE Anime
Releasergruppe: Anime Otakus
Hoster: DDownload | Rapidgator

Mediainfo:
Code:
Format                                   : Matroska
Format version                           : Version 4
File size                                : 12.9 GiB
Duration                                 : 1 h 47 min
Overall bit rate mode                    : Variable
Overall bit rate                         : 17.2 Mb/s
Encoded date                             : UTC 2022-07-01 23:56:17
Writing application                      : mkvmerge v59.0.0 ('Shining Star') 64-bit
Writing library                          : libebml v1.4.2 + libmatroska v1.6.4 / Lavf59.23.100
Released by                              : Anime Otakus
Version                                  : 1.1

Video
ID                                       : 1
Format                                   : AV1
Format/Info                              : AOMedia Video 1
Format profile                           : [email protected]
HDR format                               : SMPTE ST 2086, HDR10 compatible
Codec ID                                 : V_AV1
Duration                                 : 1 h 46 min
Bit rate                                 : 10.1 Mb/s
Width                                    : 3 840 pixels
Height                                   : 2 160 pixels
Display aspect ratio                     : 16:9
Frame rate mode                          : Constant
Frame rate                               : 23.976 (24000/1001) FPS
Color space                              : YUV
Chroma subsampling                       : 4:2:0
Bit depth                                : 10 bits
Bits/(Pixel*Frame)                       : 0.051
Stream size                              : 7.48 GiB (58%)
Default                                  : No
Forced                                   : No
Color range                              : Limited
Color primaries                          : BT.2020
Transfer characteristics                 : PQ
Matrix coefficients                      : BT.2020 non-constant
Mastering display color primaries        : R: x=0.708000 y=0.292000, G: x=0.170000 y=0.797000, B: x=0.046000 y=0.131000, White point: x=0.329000 y=0.312700
Mastering display luminance              : min: 0.0050 cd/m2, max: 1000 cd/m2
Maximum Content Light Level              : 777
Maximum Frame-Average Light Level        : 370

Audio #1
ID                                       : 2
Format                                   : DTS XLL
Format/Info                              : Digital Theater Systems
Commercial name                          : DTS-HD Master Audio
Codec ID                                 : A_DTS
Duration                                 : 1 h 47 min
Bit rate mode                            : Variable
Bit rate                                 : 3 630 kb/s
Channel(s)                               : 6 channels
Channel layout                           : C L R Ls Rs LFE
Sampling rate                            : 48.0 kHz
Frame rate                               : 93.750 FPS (512 SPF)
Bit depth                                : 24 bits
Compression mode                         : Lossless
Stream size                              : 2.71 GiB (21%)
Language                                 : German
Default                                  : No
Forced                                   : No

Audio #2
ID                                       : 3
Format                                   : DTS XLL
Format/Info                              : Digital Theater Systems
Commercial name                          : DTS-HD Master Audio
Codec ID                                 : A_DTS
Duration                                 : 1 h 46 min
Bit rate mode                            : Variable
Bit rate                                 : 3 595 kb/s
Channel(s)                               : 6 channels
Channel layout                           : C L R Ls Rs LFE
Sampling rate                            : 48.0 kHz
Frame rate                               : 93.750 FPS (512 SPF)
Bit depth                                : 24 bits
Compression mode                         : Lossless
Stream size                              : 2.68 GiB (21%)
Language                                 : Japanese
Default                                  : No
Forced                                   : No

Text #1
ID                                       : 4
Format                                   : UTF-8
Codec ID                                 : S_TEXT/UTF8
Codec ID/Info                            : UTF-8 Plain Text
Duration                                 : 1 h 29 min
Bit rate                                 : 1 b/s
Count of elements                        : 30
Stream size                              : 735 Bytes (0%)
Title                                    : German Forced
Language                                 : German
Default                                  : Yes
Forced                                   : No

Text #2
ID                                       : 5
Format                                   : PGS
Muxing mode                              : zlib
Codec ID                                 : S_HDMV/PGS
Codec ID/Info                            : Picture based subtitle format used on BDs/HD-DVDs
Duration                                 : 1 h 45 min
Bit rate                                 : 42.1 kb/s
Count of elements                        : 2504
Stream size                              : 31.7 MiB (0%)
Title                                    : German Full
Language                                 : German
Default                                  : No
Forced                                   : No

Menu
00:00:00.000                             : ja:Chapter 01
00:01:34.094                             : ja:Chapter 02
00:03:21.868                             : ja:Chapter 03
00:05:13.271                             : ja:Chapter 04
00:08:37.308                             : ja:Chapter 05
00:12:11.313                             : ja:Chapter 06
00:14:32.371                             : ja:Chapter 07
00:17:22.499                             : ja:Chapter 08
00:22:57.918                             : ja:Chapter 09
00:27:05.624                             : ja:Chapter 10
00:28:16.569                             : ja:Chapter 11
00:29:53.541                             : ja:Chapter 12
00:32:42.835                             : ja:Chapter 13
00:37:26.994                             : ja:Chapter 14
00:41:57.765                             : ja:Chapter 15
00:44:30.334                             : ja:Chapter 16
00:45:54.001                             : ja:Chapter 17
00:48:28.655                             : ja:Chapter 18
00:53:01.386                             : ja:Chapter 19
00:56:53.868                             : ja:Chapter 20
01:03:42.318                             : ja:Chapter 21
01:06:03.793                             : ja:Chapter 22
01:09:44.930                             : ja:Chapter 23
01:12:41.815                             : ja:Chapter 24
01:16:42.472                             : ja:Chapter 25
01:21:21.710                             : ja:Chapter 26
01:29:12.805                             : ja:Chapter 27
01:32:51.857                             : ja:Chapter 28
01:37:01.732                             : ja:Chapter 29
01:41:19.615                             : ja:Chapter 30
01:46:34.638                             : ja:Chapter 31
Code:
Format                                   : Matroska
Format version                           : Version 4
File size                                : 8.46 GiB
Duration                                 : 1 h 47 min
Overall bit rate                         : 11.3 Mb/s
Encoded date                             : UTC 2022-07-01 23:58:34
Writing application                      : mkvmerge v59.0.0 ('Shining Star') 64-bit
Writing library                          : libebml v1.4.2 + libmatroska v1.6.4 / Lavf59.23.100
Released by                              : Anime Otakus
Version                                  : 1.1

Video
ID                                       : 1
Format                                   : AV1
Format/Info                              : AOMedia Video 1
Format profile                           : [email protected]
HDR format                               : SMPTE ST 2086, HDR10 compatible
Codec ID                                 : V_AV1
Duration                                 : 1 h 47 min
Bit rate                                 : 9 805 kb/s
Width                                    : 3 840 pixels
Height                                   : 2 160 pixels
Display aspect ratio                     : 16:9
Frame rate mode                          : Constant
Frame rate                               : 23.976 (24000/1001) FPS
Color space                              : YUV
Chroma subsampling                       : 4:2:0
Bit depth                                : 10 bits
Bits/(Pixel*Frame)                       : 0.049
Stream size                              : 7.33 GiB (87%)
Default                                  : No
Forced                                   : No
Color range                              : Limited
Color primaries                          : BT.2020
Transfer characteristics                 : PQ
Matrix coefficients                      : BT.2020 non-constant
Mastering display color primaries        : R: x=0.708000 y=0.292000, G: x=0.170000 y=0.797000, B: x=0.046000 y=0.131000, White point: x=0.329000 y=0.312700
Mastering display luminance              : min: 0.0050 cd/m2, max: 1000 cd/m2
Maximum Content Light Level              : 777
Maximum Frame-Average Light Level        : 370
Statistics Tags Issue                    : mkvmerge v59.0.0 ('Shining Star') 64-bit 2022-07-01 23:56:17 / mkvmerge v59.0.0 ('Shining Star') 64-bit 2022-07-01 23:58:34
FromStats_BitRate                        : 10051362
FromStats_Duration                       : 01:46:35.598000000
FromStats_FrameCount                     : 153341
FromStats_StreamSize                     : 8035559472

Audio #1
ID                                       : 2
Format                                   : E-AC-3
Format/Info                              : Enhanced AC-3
Commercial name                          : Dolby Digital Plus
Codec ID                                 : A_EAC3
Duration                                 : 1 h 47 min
Bit rate mode                            : Constant
Bit rate                                 : 640 kb/s
Channel(s)                               : 6 channels
Channel layout                           : L R C LFE Ls Rs
Sampling rate                            : 48.0 kHz
Frame rate                               : 31.250 FPS (1536 SPF)
Bit depth                                : 32 bits
Compression mode                         : Lossy
Stream size                              : 490 MiB (6%)
Language                                 : German
Service kind                             : Complete Main
Default                                  : Yes
Forced                                   : No

Audio #2
ID                                       : 3
Format                                   : E-AC-3
Format/Info                              : Enhanced AC-3
Commercial name                          : Dolby Digital Plus
Codec ID                                 : A_EAC3
Duration                                 : 1 h 47 min
Bit rate mode                            : Constant
Bit rate                                 : 640 kb/s
Channel(s)                               : 6 channels
Channel layout                           : L R C LFE Ls Rs
Sampling rate                            : 48.0 kHz
Frame rate                               : 31.250 FPS (1536 SPF)
Bit depth                                : 32 bits
Compression mode                         : Lossy
Stream size                              : 490 MiB (6%)
Language                                 : Japanese
Service kind                             : Complete Main
Default                                  : No
Forced                                   : No

Text #1
ID                                       : 4
Format                                   : UTF-8
Codec ID                                 : S_TEXT/UTF8
Codec ID/Info                            : UTF-8 Plain Text
Title                                    : German Forced
Language                                 : German
Default                                  : Yes
Forced                                   : No
Statistics Tags Issue                    : mkvmerge v59.0.0 ('Shining Star') 64-bit 2022-07-01 23:56:17 / mkvmerge v59.0.0 ('Shining Star') 64-bit 2022-07-01 23:58:34
FromStats_BitRate                        : 1
FromStats_Duration                       : 01:29:05.346000000
FromStats_FrameCount                     : 30
FromStats_StreamSize                     : 735

Text #2
ID                                       : 5
Format                                   : PGS
Muxing mode                              : zlib
Codec ID                                 : S_HDMV/PGS
Codec ID/Info                            : Picture based subtitle format used on BDs/HD-DVDs
Title                                    : German Full
Language                                 : German
Default                                  : No
Forced                                   : No
Statistics Tags Issue                    : mkvmerge v59.0.0 ('Shining Star') 64-bit 2022-07-01 23:56:17 / mkvmerge v59.0.0 ('Shining Star') 64-bit 2022-07-01 23:58:34
FromStats_BitRate                        : 42064
FromStats_Duration                       : 01:45:23.962000000
FromStats_FrameCount                     : 2504
FromStats_StreamSize                     : 33252030

Menu
00:00:00.000                             : ja:Chapter 01
00:01:34.094                             : ja:Chapter 02
00:03:21.868                             : ja:Chapter 03
00:05:13.271                             : ja:Chapter 04
00:08:37.308                             : ja:Chapter 05
00:12:11.313                             : ja:Chapter 06
00:14:32.371                             : ja:Chapter 07
00:17:22.499                             : ja:Chapter 08
00:22:57.918                             : ja:Chapter 09
00:27:05.624                             : ja:Chapter 10
00:28:16.569                             : ja:Chapter 11
00:29:53.541                             : ja:Chapter 12
00:32:42.835                             : ja:Chapter 13
00:37:26.994                             : ja:Chapter 14
00:41:57.765                             : ja:Chapter 15
00:44:30.334                             : ja:Chapter 16
00:45:54.001                             : ja:Chapter 17
00:48:28.655                             : ja:Chapter 18
00:53:01.386                             : ja:Chapter 19
00:56:53.868                             : ja:Chapter 20
01:03:42.318                             : ja:Chapter 21
01:06:03.793                             : ja:Chapter 22
01:09:44.930                             : ja:Chapter 23
01:12:41.815                             : ja:Chapter 24
01:16:42.472                             : ja:Chapter 25
01:21:21.710                             : ja:Chapter 26
01:29:12.805                             : ja:Chapter 27
01:32:51.857                             : ja:Chapter 28
01:37:01.732                             : ja:Chapter 29
01:41:19.615                             : ja:Chapter 30
01:46:34.638                             : ja:Chapter 31

Status:
Rapidgator
2160p DTS-HD:
9F6F5B3B20.png

2160p EAC3:
B181DEA7A3.png


DDownload
2160p DTS-HD:
7FF968E4B0.png

2160p EAC3:
83BB68DBAF.png


To view the content, you need to Sign In or Register.