• Angebote, die sich im Download-Archiv befinden, können möglicherweise offline sein. Bitte wende Dich an den Uploader oder an andere Uploader, um einen Reupload zu erbitten.
Welcome to our Community
Wanting to join the rest of our members? Feel free to sign up today.
Sign up

Zetsuen no Tempest: The Civilization Blaster [Jap-Dub][Ger-Sub][720p][HDTV] - Chinu

Azugo

H͓̽u͓̽g͓̽o͓̽ ͓̽&͓̽ ͓̽A͓̽z͓̽u͓̽r͓̽a͓̽
Otaku Gott
Uploader
25 März 2020
3.530
34.250
118

Zetsuen no Tempest: The Civilization Blaster




mzpbr67u.jpg



Kurzbeschreibung:
AniSearch.com schrieb:
Yoshino und Mahiro sind immer beste Freunde gewesen. Eines Tages verschwindet Mahiro jedoch spurlos. Yoshino hat Mahiro jedoch trotz der engen Bindung, die die beiden verbunden hat, nicht gefunden. Als er eines Tages Blumen auf das Grab von Mahiros Familie legt, stellt eine geheimnisvolle Frau fragen über Mahiro. Sie scheint etwas über das Verschwinden von ihm zu wissen und spricht davon, dass die japanische Regierung darin verwickelt sei und sie Mahiro ebenfalls suchen würden. Außerdem meint sie, dass Mahiro die Welt in eine katastrophale Situation stürzen kann. Und was hat Hakaze, eine Hexe, die auf einer einsamen Insel lebt, damit zu tun?



Spieldauer: 24min
Genre: Abenteuer
Nebengenres: Abenteuer, Action, Drama, Mystery, Psychodrama, Romanze
Jahr: 2012
Sprache:
Japanisch.png
Japanisch
Untertitel:
Deutsch.png
Deutsch
Größe pro Folge: ~429 MiB
Episodenanzahl: 24 /24
Format: MP4
Auflösung: 720p (16:9)
Videocodec: x264 (AVC)
Audiocodec: AAC
Releasegruppe: Chinurarete-Subs
Hoster:
rapidgator-gif.30742
Rapidgator,
ddownload-gif.30720
ddownload


Code:
[color=red]
Format                                   : MPEG-4
Format profile                           : Base Media
Codec ID                                 : isom
File size                                : 429 MiB
Duration                                 : 24mn 26s
Overall bit rate mode                    : Variable
Overall bit rate                         : 2 455 Kbps
Encoded date                             : UTC 2012-10-04 23:00:18
Tagged date                              : UTC 2012-10-04 23:00:18
Writing application                      : Yamb 2.1.0.0 [http://yamb.unite-video.com]

Video
ID                                       : 1
Format                                   : AVC
Format/Info                              : Advanced Video Codec
Format profile                           : [email protected]
Format settings, CABAC                   : Yes
Format settings, ReFrames                : 4 frames
Codec ID                                 : avc1
Codec ID/Info                            : Advanced Video Coding
Duration                                 : 24mn 26s
Bit rate                                 : 2 323 Kbps
Maximum bit rate                         : 14.4 Mbps
Width                                    : 1 280 pixels
Height                                   : 720 pixels
Display aspect ratio                     : 16:9
Frame rate mode                          : Constant
Frame rate                               : 23.976 fps
Color space                              : YUV
Chroma subsampling                       : 4:2:0
Bit depth                                : 8 bits
Scan type                                : Progressive
Bits/(Pixel*Frame)                       : 0.105
Stream size                              : 406 MiB (95%)
Writing library                          : x264 core 125 r2200+677M 3a754e7
Encoding settings                        : cabac=1 / ref=3 / deblock=1:0:0 / analyse=0x3:0x113 / me=umh / subme=7 / psy=1 / fade_compensate=0.00 / psy_rd=1.00:0.00 / mixed_ref=1 / me_range=16 / chroma_me=1 / trellis=1 / 8x8dct=1 / cqm=0 / deadzone=21,11 / fast_pskip=1 / chroma_qp_offset=-2 / threads=6 / lookahead_threads=1 / sliced_threads=0 / nr=0 / decimate=1 / interlaced=0 / bluray_compat=0 / constrained_intra=0 / fgo=0 / bframes=3 / b_pyramid=2 / b_adapt=1 / b_bias=0 / direct=1 / weightb=1 / open_gop=0 / weightp=2 / keyint=240 / keyint_min=23 / scenecut=40 / intra_refresh=0 / rc=crf / mbtree=0 / crf=20.0000 / qcomp=0.60 / qpmin=0 / qpmax=69 / qpstep=4 / ip_ratio=1.40 / pb_ratio=1.30 / aq=1:1.20
Encoded date                             : UTC 2012-10-05 22:55:54
Tagged date                              : UTC 2012-10-04 23:00:20

Audio
ID                                       : 2
Format                                   : AAC
Format/Info                              : Advanced Audio Codec
Format profile                           : LC
Codec ID                                 : 40
Duration                                 : 24mn 26s
Bit rate mode                            : Variable
Bit rate                                 : 128 Kbps
Maximum bit rate                         : 140 Kbps
Channel(s)                               : 2 channels
Channel positions                        : Front: L R
Sampling rate                            : 44.1 KHz
Compression mode                         : Lossy
Stream size                              : 22.4 MiB (5%)
Encoded date                             : UTC 2012-10-04 23:00:19
Tagged date                              : UTC 2012-10-04 23:00:20

[/color]



download.png

Onlinestatus: Rapidgator
AC6B67A629.png
ddownload
EA8EA0FC8D.png
To view the content, you need to Sign In or Register.

 
Zuletzt bearbeitet: