Welcome to our Community
Wanting to join the rest of our members? Feel free to sign up today.
Sign up

OVA Cyber City Oedo 808 [03/03][Ger-Jap-Eng-Dub][Ger-Eng-Sub][DTS-AAC][HEVC][10-BiT][1080P][BluRay] - Puma

MisterPuma

Uploader
Otaku Novize
4 Mai 2017
30
262
58
33
Norden
Cyber City Oedo 080 (1990) OVA
サイバーシティ OEDO 808


cyber-city-oedo-808-collectors-edition-digipak-uk-import-front.jpeg


BESCHREIBUNG:

Im Jahr 2808 steht an Stelle Tokios die moderne Metropole OEDO (Oriental Electric Darwinism Oasis, aber auch japanisch für „Groß-Edo“). Den drei Kriminellen Sengoku, Gogal und Benten wird angeboten, für die Justiz zu arbeiten und dafür Strafminderung zu erhalten. Zur Kontrolle tragen sie Sprengstoff um ihre Hälse, der auf ein Signal des Vorgesetzten Hasegawa hin explodieren kann. So werden die drei Verbrecher von der Polizei gegen die Kriminellen eingesetzt.

REMASTER Version von 2022.
Englischer und Japanischer DTS Ton von der Blu Ray, samt neuem Soundtrack für die englische Vertonung.
Deutscher AC3 Ton von der DVD (MeisterMutaito Release).


INFO:

Dauer: OVA 1 - 42 Min / OVA 2 - 45 Min / OVA 4 - 41 Min
Genre: Cyberpunk, Action, SciFi, Splatter
Source: Blu-Ray Disc
Format: MKV
Video Codec: H.265
Audio Codec: DTS/AAC
Sprache: Deutsch, Japanisch, Englisch
Untertitel: Deutsch (Full & Forced), Englisch (Full & Forced)
Auflösung: 1440x1080
Größe: 8,2GB ; 6,5GB ; 6GB
Hoster: Rapidgator
MEDIAINFO:


General
Unique ID : 248212834762316412853282779724931479687 (0xBABC0D984A0854F112744D4233ED3887)
Complete name : D:\Anime\Cyber City oedo 808\Cyber City Oedo 808 - 01 - Akte vergangener Zeiten [Jap.Ger.Eng.Dub][Ger.Eng.Sub][1080p][BD][Puma] .mkv
Format : Matroska
Format version : Version 4
File size : 8.24 GiB
Duration : 42 min 1 s
Overall bit rate mode : Variable
Overall bit rate : 28.1 Mb/s
Frame rate : 23.976 FPS
Movie name : Cyber City Oedo 808
Encoded date : 2023-08-02 13:13:13 UTC
Writing application : mkvmerge v78.0 ('Running') 64-bit
Writing library : libebml v1.4.4 + libmatroska v1.7.1
Attachments : ariali.ttf / ARIALN.TTF / ARIALNB.TTF / ARIALNBI.TTF / ARIALNI.TTF / ariblk.ttf / LFAX.TTF / LFAXD.TTF / LFAXDI.TTF / LFAXI.TTF / arial.ttf / arialbd.ttf / arialbi.ttf

Video
ID : 1
Format : HEVC
Format/Info : High Efficiency Video Coding
Format profile : Main 10@L4@Main
Codec ID : V_MPEGH/ISO/HEVC
Duration : 42 min 0 s
Bit rate : 23.2 Mb/s
Width : 1 440 pixels
Height : 1 080 pixels
Display aspect ratio : 4:3
Frame rate mode : Constant
Frame rate : 23.976 (24000/1001) FPS
Color space : YUV
Chroma subsampling : 4:2:0
Bit depth : 10 bits
Bits/(Pixel*Frame) : 0.621
Stream size : 6.80 GiB (83%)
Writing library : x265 3.5+1-ce882936d:[Windows][MSVC 1928][64 bit] 10bit
Encoding settings : cpuid=1111039 / frame-threads=4 / numa-pools=24 / wpp / no-pmode / no-pme / no-psnr / no-ssim / log-level=2 / input-csp=1 / input-res=1440x1080 / interlace=0 / total-frames=60432 / level-idc=0 / high-tier=1 / uhd-bd=0 / ref=4 / no-allow-non-conformance / no-repeat-headers / annexb / no-aud / no-hrd / info / hash=0 / no-temporal-layers / no-open-gop / min-keyint=1 / keyint=360 / gop-lookahead=0 / bframes=6 / b-adapt=2 / b-pyramid / bframe-bias=0 / rc-lookahead=80 / lookahead-slices=0 / scenecut=40 / hist-scenecut=0 / radl=0 / no-splice / no-intra-refresh / ctu=32 / min-cu-size=8 / rect / no-amp / max-tu-size=32 / tu-inter-depth=3 / tu-intra-depth=3 / limit-tu=4 / rdoq-level=2 / dynamic-rd=0.00 / no-ssim-rd / signhide / no-tskip / nr-intra=0 / nr-inter=0 / no-constrained-intra / no-strong-intra-smoothing / max-merge=5 / limit-refs=0 / no-limit-modes / me=3 / subme=5 / merange=38 / temporal-mvp / no-frame-dup / no-hme / weightp / weightb / no-analyze-src-pics / deblock=-1:-1 / no-sao / no-sao-non-deblock / rd=5 / selective-sao=0 / no-early-skip / rskip / no-fast-intra / no-tskip-fast / no-cu-lossless / b-intra / no-splitrd-skip / rdpenalty=0 / psy-rd=2.00 / psy-rdoq=1.00 / no-rd-refine / no-lossless / cbqpoffs=-2 / crqpoffs=-2 / rc=crf / crf=18.0 / qcomp=0.65 / qpstep=4 / stats-write=0 / stats-read=0 / ipratio=1.40 / pbratio=1.20 / aq-mode=1 / aq-strength=0.80 / cutree / zone-count=0 / no-strict-cbr / qg-size=8 / no-rc-grain / qpmax=69 / qpmin=0 / no-const-vbv / sar=0 / overscan=0 / videoformat=5 / range=0 / colorprim=1 / transfer=1 / colormatrix=1 / chromaloc=0 / display-window=0 / cll=0,0 / min-luma=0 / max-luma=1023 / log2-max-poc-lsb=8 / vui-timing-info / vui-hrd-info / slices=1 / no-opt-qp-pps / no-opt-ref-list-length-pps / no-multi-pass-opt-rps / scenecut-bias=0.05 / hist-threshold=0.03 / no-opt-cu-delta-qp / no-aq-motion / no-hdr10 / no-hdr10-opt / no-dhdr10-opt / no-idr-recovery-sei / analysis-reuse-level=0 / analysis-save-reuse-level=0 / analysis-load-reuse-level=0 / scale-factor=0 / refine-intra=0 / refine-inter=0 / refine-mv=1 / refine-ctu-distortion=0 / no-limit-sao / ctu-info=0 / no-lowpass-dct / refine-analysis-type=0 / copy-pic=1 / max-ausize-factor=1.0 / no-dynamic-refine / no-single-sei / no-hevc-aq / no-svt / no-field / qp-adaptation-range=1.00 / scenecut-aware-qp=0conformance-window-offsets / right=0 / bottom=0 / decoder-max-rate=0 / no-vbv-live-multi-pass
Default : Yes
Forced : No
Color range : Limited
Color primaries : BT.709
Transfer characteristics : BT.709
Matrix coefficients : BT.709

Audio #1
ID : 2
ID in the original source medi : 4352 (0x1100)
Format : DTS XLL
Format/Info : Digital Theater Systems
Commercial name : DTS-HD Master Audio
Codec ID : A_DTS
Duration : 42 min 0 s
Bit rate mode : Variable
Bit rate : 721 kb/s
Channel(s) : 2 channels
Channel layout : L R
Sampling rate : 48.0 kHz
Frame rate : 93.750 FPS (512 SPF)
Bit depth : 24 bits
Compression mode : Lossless
Stream size : 217 MiB (3%)
Title : English speech+Rory McFarlane soundtrack
Language : English
Default : No
Forced : No
Original source medium : Blu-ray

Audio #2
ID : 3
ID in the original source medi : 4352 (0x1100)
Format : DTS
Format/Info : Digital Theater Systems
Codec ID : A_DTS
Duration : 42 min 0 s
Bit rate mode : Constant
Bit rate : 255 kb/s
Channel(s) : 2 channels
Channel layout : L R
Sampling rate : 48.0 kHz
Frame rate : 93.750 FPS (512 SPF)
Bit depth : 24 bits
Compression mode : Lossy
Stream size : 76.6 MiB (1%)
Title : English speech+Rory McFarlane soundtrack
Language : English
Default : No
Forced : No
Original source medium : Blu-ray

Audio #3
ID : 4
ID in the original source medi : 4353 (0x1101)
Format : DTS XLL
Format/Info : Digital Theater Systems
Commercial name : DTS-HD Master Audio
Codec ID : A_DTS
Duration : 42 min 0 s
Bit rate mode : Variable
Bit rate : 1 609 kb/s
Channel(s) : 2 channels
Channel layout : L R
Sampling rate : 48.0 kHz
Frame rate : 93.750 FPS (512 SPF)
Bit depth : 24 bits
Compression mode : Lossless
Stream size : 483 MiB (6%)
Title : English speech+Japanese soundtrack
Language : English
Default : No
Forced : No
Original source medium : Blu-ray

Audio #4
ID : 5
ID in the original source medi : 4353 (0x1101)
Format : DTS
Format/Info : Digital Theater Systems
Codec ID : A_DTS
Duration : 42 min 0 s
Bit rate mode : Constant
Bit rate : 255 kb/s
Channel(s) : 2 channels
Channel layout : L R
Sampling rate : 48.0 kHz
Frame rate : 93.750 FPS (512 SPF)
Bit depth : 24 bits
Compression mode : Lossy
Stream size : 76.6 MiB (1%)
Title : English speech+Japanese soundtrack
Language : English
Default : No
Forced : No
Original source medium : Blu-ray

Audio #5
ID : 6
ID in the original source medi : 4354 (0x1102)
Format : DTS XLL
Format/Info : Digital Theater Systems
Commercial name : DTS-HD Master Audio
Codec ID : A_DTS
Duration : 42 min 0 s
Bit rate mode : Variable
Bit rate : 1 586 kb/s
Channel(s) : 2 channels
Channel layout : L R
Sampling rate : 48.0 kHz
Frame rate : 93.750 FPS (512 SPF)
Bit depth : 24 bits
Compression mode : Lossless
Stream size : 477 MiB (6%)
Title : Japanese speech+Japanese soundtrack
Language : Japanese
Default : No
Forced : No
Original source medium : Blu-ray

Audio #6
ID : 7
ID in the original source medi : 4354 (0x1102)
Format : DTS
Format/Info : Digital Theater Systems
Codec ID : A_DTS
Duration : 42 min 0 s
Bit rate mode : Constant
Bit rate : 255 kb/s
Channel(s) : 2 channels
Channel layout : L R
Sampling rate : 48.0 kHz
Frame rate : 93.750 FPS (512 SPF)
Bit depth : 24 bits
Compression mode : Lossy
Stream size : 76.6 MiB (1%)
Title : Japanese speech+Japanese soundtrack
Language : Japanese
Default : No
Forced : No
Original source medium : Blu-ray

Audio #7
ID : 8
Format : AC-3
Format/Info : Audio Coding 3
Commercial name : Dolby Digital
Codec ID : A_AC3
Duration : 42 min 1 s
Bit rate mode : Constant
Bit rate : 192 kb/s
Channel(s) : 2 channels
Channel layout : L R
Sampling rate : 48.0 kHz
Frame rate : 31.250 FPS (1536 SPF)
Compression mode : Lossy
Stream size : 57.7 MiB (1%)
Title : Deutsch Sprache+Japanischer Soundtrack
Language : German
Service kind : Complete Main
Default : Yes
Forced : No

Text #1
ID : 9
Format : PGS
Muxing mode : zlib
Codec ID : S_HDMV/PGS
Codec ID/Info : Picture based subtitle format used on BDs/HD-DVDs
Duration : 41 min 38 s
Bit rate : 29.5 kb/s
Frame rate : 0.253 FPS
Count of elements : 632
Stream size : 8.79 MiB (0%)
Language : English
Default : Yes
Forced : No

Text #2
ID : 10
Format : ASS
Codec ID : S_TEXT/ASS
Codec ID/Info : Advanced Sub Station Alpha
Duration : 25 min 49 s
Bit rate : 2 b/s
Frame rate : 0.005 FPS
Count of elements : 7
Compression mode : Lossless
Stream size : 508 Bytes (0%)
Title : Deutsch Forced
Language : German
Default : Yes
Forced : No

Text #3
ID : 11
Format : ASS
Codec ID : S_TEXT/ASS
Codec ID/Info : Advanced Sub Station Alpha
Duration : 38 min 46 s
Bit rate : 81 b/s
Frame rate : 0.143 FPS
Count of elements : 333
Compression mode : Lossless
Stream size : 23.2 KiB (0%)
Title : Deutsch Full
Language : German
Default : No
Forced : No

Menu
00:00:00.000 : en:Chapter 01
00:04:00.949 : en:Chapter 02
00:16:13.514 : en:Chapter 03
00:26:35.802 : en:Chapter 04
00:38:58.377 : en:Chapter 05


DOWNLOAD:

To view the content, you need to Sign In or Register.