Welcome to our Community
Wanting to join the rest of our members? Feel free to sign up today.
Sign up

InuYasha [Ger-Jap-Dub][Ger-Sub][AC-3|DTS-HD][720p|1080p][BluRay] - Fuuko

Azugo

H͓̽u͓̽g͓̽o͓̽ ͓̽&͓̽ ͓̽A͓̽z͓̽u͓̽r͓̽a͓̽
Otaku Gott
Uploader
25 März 2020
3.588
35.990
118
Inuyasha
E001 - 167


T0VGSe2.jpg
WuHplnk.jpg
FRt7Ncl.jpg
MTL1Ci6.jpg
HdzwF6c.jpg
nZICdie.jpg


AdaL3Vu.png
Inuyasha, Kagome und ihre Freunde werden von Mitgliedern der Sieben Krieger, die durch Narakus Juwelensplitter wiedererweckt wurden, angegriffen und vergiftet. Bis auf Inuyasha, Shippo und Kirara sind alle bewusstlos und drohen zu ersticken. Als sich die drei auf der Suche nach einem Versteck zum Schutz vor den feindlichen Attacken befinden, erwacht Kagome plötzlich und verschwindet spurlos. Derweil trifft auch Kouga auf ein Mitglied der Sieben Krieger und erfährt von dem Überfall auf Inuyasha und die anderen. Sofort macht er sich auf die Suche nach Kagome, um sie zu retten. Doch ihr Verschwinden bleibt neben den Angreifern nicht das einzige Problem. Auch ihre Juwelensplitter wurden gestohlen ...

Hr0yxjI.png

Episoden: 167 / 167
Spieldauer: 24 Min.
Source: Deutsche Original BluRay
Release by: Fuuko
Format: mkv
Sprache: Deutsch [2.0] | Japanisch [2.0]
Untertitel: Deutsch (Forced) | Deutsch (Full)
Audio: AC-3 [640 kb/s] | DTS-HD
Auflösung E001-E104: 960x720 | 1440x1080
Auflösung E105-E167: 1280x720 | 1920x1080
Größe: 800MB | 1400MB | 1600MB
Code:
Complete name               : E:\InuYasha.E001-E028.German.AC3.DL.720p.BluRay.x264-Fuuko\InuYasha.E001.German.AC3.DL.720p.BluRay.x264-Fuuko.mkv
Format                      : Matroska
Format version              : Version 4
File size                   : 794 MiB
Duration                    : 23 min 57 s
Overall bit rate            : 4 635 kb/s
Encoded date                : UTC 2021-03-02 20:38:03
Writing application         : mkvmerge v54.0.0 ('F Maj Pixie') 64-bit
Writing library             : libebml v1.4.2 + libmatroska v1.6.3

Video
ID                          : 1
Format                      : AVC
Format/Info                 : Advanced Video Codec
Format profile              : [email protected]
Format settings             : CABAC / 4 Ref Frames
Format settings, CABAC      : Yes
Format settings, Reference  : 4 frames
Codec ID                    : V_MPEG4/ISO/AVC
Duration                    : 23 min 57 s
Bit rate                    : 3 335 kb/s
Width                       : 960 pixels
Height                      : 720 pixels
Display aspect ratio        : 4:3
Frame rate mode             : Constant
Frame rate                  : 23.976 (24000/1001) FPS
Color space                 : YUV
Chroma subsampling          : 4:2:0
Bit depth                   : 8 bits
Scan type                   : Progressive
Bits/(Pixel*Frame)          : 0.201
Stream size                 : 571 MiB (72%)
Writing library             : x264 core 157 r2935 545de2f
Encoding settings           : cabac=1 / ref=3 / deblock=1:0:0 / analyse=0x3:0x133 / me=umh / subme=9 / psy=1 / psy_rd=1.00:0.00 / mixed_ref=1 / me_range=32 / chroma_me=1 / trellis=2 / 8x8dct=1 / cqm=0 / deadzone=21,11 / fast_pskip=0 / chroma_qp_offset=-2 / threads=12 / lookahead_threads=1 / sliced_threads=0 / nr=0 / decimate=0 / interlaced=0 / bluray_compat=0 / constrained_intra=0 / bframes=3 / b_pyramid=2 / b_adapt=2 / b_bias=0 / direct=3 / weightb=1 / open_gop=0 / weightp=2 / keyint=250 / keyint_min=24 / scenecut=40 / intra_refresh=0 / rc_lookahead=48 / rc=crf / mbtree=1 / crf=16.0 / qcomp=0.70 / qpmin=0 / qpmax=69 / qpstep=4 / vbv_maxrate=62500 / vbv_bufsize=78125 / crf_max=0.0 / nal_hrd=none / filler=0 / ip_ratio=1.40 / aq=3:1.00
Default                     : Yes
Forced                      : No
Color range                 : Limited
Color primaries             : BT.709
Transfer characteristics    : BT.709
Matrix coefficients         : BT.709

Audio #1
ID                          : 2
Format                      : AC-3
Format/Info                 : Audio Coding 3
Commercial name             : Dolby Digital
Codec ID                    : A_AC3
Duration                    : 23 min 57 s
Bit rate mode               : Constant
Bit rate                    : 640 kb/s
Channel(s)                  : 2 channels
Channel layout              : L R
Sampling rate               : 48.0 kHz
Frame rate                  : 31.250 FPS (1536 SPF)
Compression mode            : Lossy
Delay relative to video     : -5 ms
Stream size                 : 110 MiB (14%)
Language                    : German
Service kind                : Complete Main
Default                     : Yes
Forced                      : No

Audio #2
ID                          : 3
Format                      : AC-3
Format/Info                 : Audio Coding 3
Commercial name             : Dolby Digital
Codec ID                    : A_AC3
Duration                    : 23 min 57 s
Bit rate mode               : Constant
Bit rate                    : 640 kb/s
Channel(s)                  : 2 channels
Channel layout              : L R
Sampling rate               : 48.0 kHz
Frame rate                  : 31.250 FPS (1536 SPF)
Compression mode            : Lossy
Delay relative to video     : -5 ms
Stream size                 : 110 MiB (14%)
Language                    : Japanese
Service kind                : Complete Main
Default                     : No
Forced                      : No

Text #1
ID                          : 4
Format                      : PGS
Muxing mode                 : zlib
Codec ID                    : S_HDMV/PGS
Codec ID/Info               : Picture based subtitle format used on BDs/HD-DVDs
Duration                    : 20 min 12 s
Bit rate                    : 405 b/s
Count of elements           : 6
Stream size                 : 60.0 KiB (0%)
Language                    : German
Default                     : Yes
Forced                      : Yes

Text #2
ID                          : 5
ID in the original source m : 4609 (0x1201)
Format                      : PGS
Muxing mode                 : zlib
Codec ID                    : S_HDMV/PGS
Codec ID/Info               : Picture based subtitle format used on BDs/HD-DVDs
Duration                    : 22 min 31 s
Bit rate                    : 34.5 kb/s
Count of elements           : 521
Stream size                 : 5.56 MiB (1%)
Language                    : German
Default                     : No
Forced                      : No
Original source medium      : Blu-ray

Menu
00:00:00.000                : en:Chapter 01
00:01:17.077                : en:Chapter 02
00:14:50.022                : en:Chapter 03
00:21:51.810                : en:Chapter 04
00:23:27.072                : en:Chapter 05
Code:
Complete name               : E:\InuYasha.E001-E028.German.AC3.DL.1080p.BluRay.x264-Fuuko\InuYasha.E001.German.AC3.DL.1080p.BluRay.x264-Fuuko.mkv
Format                      : Matroska
Format version              : Version 4
File size                   : 1.36 GiB
Duration                    : 23 min 57 s
Overall bit rate            : 8 100 kb/s
Encoded date                : UTC 2021-03-03 01:38:43
Writing application         : mkvmerge v54.0.0 ('F Maj Pixie') 64-bit
Writing library             : libebml v1.4.2 + libmatroska v1.6.3

Video
ID                          : 1
Format                      : AVC
Format/Info                 : Advanced Video Codec
Format profile              : [email protected]
Format settings             : CABAC / 4 Ref Frames
Format settings, CABAC      : Yes
Format settings, Reference  : 4 frames
Codec ID                    : V_MPEG4/ISO/AVC
Duration                    : 23 min 57 s
Bit rate                    : 6 799 kb/s
Width                       : 1 440 pixels
Height                      : 1 080 pixels
Display aspect ratio        : 4:3
Frame rate mode             : Constant
Frame rate                  : 23.976 (24000/1001) FPS
Color space                 : YUV
Chroma subsampling          : 4:2:0
Bit depth                   : 8 bits
Scan type                   : Progressive
Bits/(Pixel*Frame)          : 0.182
Stream size                 : 1.14 GiB (84%)
Writing library             : x264 core 157 r2935 545de2f
Encoding settings           : cabac=1 / ref=3 / deblock=1:0:0 / analyse=0x3:0x133 / me=umh / subme=9 / psy=1 / psy_rd=1.00:0.00 / mixed_ref=1 / me_range=32 / chroma_me=1 / trellis=2 / 8x8dct=1 / cqm=0 / deadzone=21,11 / fast_pskip=0 / chroma_qp_offset=-2 / threads=12 / lookahead_threads=1 / sliced_threads=0 / nr=0 / decimate=0 / interlaced=0 / bluray_compat=0 / constrained_intra=0 / bframes=3 / b_pyramid=2 / b_adapt=2 / b_bias=0 / direct=3 / weightb=1 / open_gop=0 / weightp=2 / keyint=250 / keyint_min=24 / scenecut=40 / intra_refresh=0 / rc_lookahead=48 / rc=crf / mbtree=1 / crf=16.0 / qcomp=0.70 / qpmin=0 / qpmax=69 / qpstep=4 / vbv_maxrate=62500 / vbv_bufsize=78125 / crf_max=0.0 / nal_hrd=none / filler=0 / ip_ratio=1.40 / aq=3:1.00
Default                     : Yes
Forced                      : No
Color range                 : Limited
Color primaries             : BT.709
Transfer characteristics    : BT.709
Matrix coefficients         : BT.709

Audio #1
ID                          : 2
Format                      : AC-3
Format/Info                 : Audio Coding 3
Commercial name             : Dolby Digital
Codec ID                    : A_AC3
Duration                    : 23 min 57 s
Bit rate mode               : Constant
Bit rate                    : 640 kb/s
Channel(s)                  : 2 channels
Channel layout              : L R
Sampling rate               : 48.0 kHz
Frame rate                  : 31.250 FPS (1536 SPF)
Compression mode            : Lossy
Delay relative to video     : -5 ms
Stream size                 : 110 MiB (8%)
Language                    : German
Service kind                : Complete Main
Default                     : Yes
Forced                      : No

Audio #2
ID                          : 3
Format                      : AC-3
Format/Info                 : Audio Coding 3
Commercial name             : Dolby Digital
Codec ID                    : A_AC3
Duration                    : 23 min 57 s
Bit rate mode               : Constant
Bit rate                    : 640 kb/s
Channel(s)                  : 2 channels
Channel layout              : L R
Sampling rate               : 48.0 kHz
Frame rate                  : 31.250 FPS (1536 SPF)
Compression mode            : Lossy
Delay relative to video     : -5 ms
Stream size                 : 110 MiB (8%)
Language                    : Japanese
Service kind                : Complete Main
Default                     : No
Forced                      : No

Text #1
ID                          : 4
Format                      : PGS
Muxing mode                 : zlib
Codec ID                    : S_HDMV/PGS
Codec ID/Info               : Picture based subtitle format used on BDs/HD-DVDs
Duration                    : 20 min 12 s
Bit rate                    : 405 b/s
Count of elements           : 6
Stream size                 : 60.0 KiB (0%)
Language                    : German
Default                     : Yes
Forced                      : Yes

Text #2
ID                          : 5
ID in the original source m : 4609 (0x1201)
Format                      : PGS
Muxing mode                 : zlib
Codec ID                    : S_HDMV/PGS
Codec ID/Info               : Picture based subtitle format used on BDs/HD-DVDs
Duration                    : 22 min 31 s
Bit rate                    : 34.5 kb/s
Count of elements           : 521
Stream size                 : 5.56 MiB (0%)
Language                    : German
Default                     : No
Forced                      : No
Original source medium      : Blu-ray

Menu
00:00:00.000                : en:Chapter 01
00:01:17.077                : en:Chapter 02
00:14:50.022                : en:Chapter 03
00:21:51.810                : en:Chapter 04
00:23:27.072                : en:Chapter 05
Code:
Complete name               : E:\InuYasha.E001-E028.German.DTS.DL.1080p.BluRay.x264-Fuuko\InuYasha.E001.German.DTS.DL.1080p.BluRay.x264-Fuuko.mkv
Format                      : Matroska
Format version              : Version 4
File size                   : 1.51 GiB
Duration                    : 23 min 57 s
Overall bit rate mode       : Variable
Overall bit rate            : 9 004 kb/s
Encoded date                : UTC 2021-03-03 07:00:54
Writing application         : mkvmerge v54.0.0 ('F Maj Pixie') 64-bit
Writing library             : libebml v1.4.2 + libmatroska v1.6.3

Video
ID                          : 1
Format                      : AVC
Format/Info                 : Advanced Video Codec
Format profile              : [email protected]
Format settings             : CABAC / 4 Ref Frames
Format settings, CABAC      : Yes
Format settings, Reference  : 4 frames
Codec ID                    : V_MPEG4/ISO/AVC
Duration                    : 23 min 57 s
Bit rate                    : 6 799 kb/s
Width                       : 1 440 pixels
Height                      : 1 080 pixels
Display aspect ratio        : 4:3
Frame rate mode             : Constant
Frame rate                  : 23.976 (24000/1001) FPS
Color space                 : YUV
Chroma subsampling          : 4:2:0
Bit depth                   : 8 bits
Scan type                   : Progressive
Bits/(Pixel*Frame)          : 0.182
Stream size                 : 1.14 GiB (76%)
Writing library             : x264 core 157 r2935 545de2f
Encoding settings           : cabac=1 / ref=3 / deblock=1:0:0 / analyse=0x3:0x133 / me=umh / subme=9 / psy=1 / psy_rd=1.00:0.00 / mixed_ref=1 / me_range=32 / chroma_me=1 / trellis=2 / 8x8dct=1 / cqm=0 / deadzone=21,11 / fast_pskip=0 / chroma_qp_offset=-2 / threads=12 / lookahead_threads=1 / sliced_threads=0 / nr=0 / decimate=0 / interlaced=0 / bluray_compat=0 / constrained_intra=0 / bframes=3 / b_pyramid=2 / b_adapt=2 / b_bias=0 / direct=3 / weightb=1 / open_gop=0 / weightp=2 / keyint=250 / keyint_min=24 / scenecut=40 / intra_refresh=0 / rc_lookahead=48 / rc=crf / mbtree=1 / crf=16.0 / qcomp=0.70 / qpmin=0 / qpmax=69 / qpstep=4 / vbv_maxrate=62500 / vbv_bufsize=78125 / crf_max=0.0 / nal_hrd=none / filler=0 / ip_ratio=1.40 / aq=3:1.00
Default                     : Yes
Forced                      : No
Color range                 : Limited
Color primaries             : BT.709
Transfer characteristics    : BT.709
Matrix coefficients         : BT.709

Audio #1
ID                          : 2
ID in the original source m : 4352 (0x1100)
Format                      : DTS XLL
Format/Info                 : Digital Theater Systems
Commercial name             : DTS-HD Master Audio
Codec ID                    : A_DTS
Duration                    : 23 min 57 s
Bit rate mode               : Variable
Bit rate                    : 1 063 kb/s
Channel(s)                  : 2 channels
Channel layout              : L R
Sampling rate               : 48.0 kHz
Frame rate                  : 93.750 FPS (512 SPF)
Bit depth                   : 16 bits
Compression mode            : Lossless
Delay relative to video     : -5 ms
Stream size                 : 182 MiB (12%)
Language                    : German
Default                     : Yes
Forced                      : No
Original source medium      : Blu-ray

Audio #2
ID                          : 3
ID in the original source m : 4353 (0x1101)
Format                      : DTS XLL
Format/Info                 : Digital Theater Systems
Commercial name             : DTS-HD Master Audio
Codec ID                    : A_DTS
Duration                    : 23 min 57 s
Bit rate mode               : Variable
Bit rate                    : 1 118 kb/s
Channel(s)                  : 2 channels
Channel layout              : L R
Sampling rate               : 48.0 kHz
Frame rate                  : 93.750 FPS (512 SPF)
Bit depth                   : 16 bits
Compression mode            : Lossless
Delay relative to video     : -5 ms
Stream size                 : 192 MiB (12%)
Language                    : Japanese
Default                     : No
Forced                      : No
Original source medium      : Blu-ray

Text #1
ID                          : 4
Format                      : PGS
Muxing mode                 : zlib
Codec ID                    : S_HDMV/PGS
Codec ID/Info               : Picture based subtitle format used on BDs/HD-DVDs
Duration                    : 20 min 12 s
Bit rate                    : 405 b/s
Count of elements           : 6
Stream size                 : 60.0 KiB (0%)
Language                    : German
Default                     : Yes
Forced                      : Yes

Text #2
ID                          : 5
ID in the original source m : 4609 (0x1201)
Format                      : PGS
Muxing mode                 : zlib
Codec ID                    : S_HDMV/PGS
Codec ID/Info               : Picture based subtitle format used on BDs/HD-DVDs
Duration                    : 22 min 31 s
Bit rate                    : 34.5 kb/s
Count of elements           : 521
Stream size                 : 5.56 MiB (0%)
Language                    : German
Default                     : No
Forced                      : No
Original source medium      : Blu-ray

Menu
00:00:00.000                : en:Chapter 01
00:01:17.077                : en:Chapter 02
00:14:50.022                : en:Chapter 03
00:21:51.810                : en:Chapter 04
00:23:27.072                : en:Chapter 05

Status: ddownload
A9CBB31396.png
rapidgator
58C9CB9AEE.png

To view the content, you need to Sign In or Register.
 
Zuletzt bearbeitet: