Wir verwenden Cookies, um deinen Aufenthalt auf Animes.so möglichst angenehm gestalten zu können. Mehr erfahren

Digimon[Jap-Dub][Ger-Sub][720p|1080p][WebRip] - CR

Dieses Thema im Forum "Anime Serien (Deutsche Untertitel)" wurde erstellt von supersonik, 6. Feb. 2021.

  1. supersonik
    supersonik

    Elite Nolife Uploader

    Registriert seit:
    7. Jan. 2018
    Beiträge:
    631
    Zustimmungen:
    27.361

    Digimon
    Digimon Adventure
    デジモンアドベンチャー
    [​IMG]

    Beschreibung:
    Sieben Kinder, die sich in den Sommerferien in einem Zeltlager treffen, werden Zeuge von seltsamen Wettererscheinungen, welche in einer riesigen Flutwelle gipfeln. Kaum wieder zu sich gekommen, folgt jedem von ihnen ein kleines Wesen. Selbige stellen sich sogleich als „Digitale Monster“, kurz Digimon, vor. Noch bevor sie sich in der fremden Umgebung zurechtfinden können, werden sie auch schon von einem bösartigen Vertreter angegriffen…
    by anisearch.de

    Folgen: 54/54
    Größe pro Folge: ~680 MB | ~1310 MB
    Releaser: Anime BluRay Junkies
    Art: Lizenzrelease
    Sprache: Japanisch
    Untertitel: Deutsch
    Jahr: 1999
    Genres: Abenteuer, Action, Drama, Fantasy, Komödie, SciFi, Alternative Welt, Gegenwart, Isekai, Monster
    Auflösung: 1280x720 | 1920x1080
    Format: MKV
    Quelle: WebRip
    Videocodec: x264
    Farbtiefe: 8bit
    Audiocodec: AAC
    Publisher: Toei Animation | Crunchyroll
    Hoster: DDownload | Uploaded


    Mediainfo:
    Code:
    General Unique ID : 14212605389215962840429900619489332547 (0xAB13F8C0BD21F5932472141C5C1CD43) Complete name : Digimon.S01E01.Subbed.AAC.720p.WebRip.x264-ABJ.mkv Format : Matroska Format version : Version 4 File size : 683 MiB Duration : 23 min 6 s Overall bit rate : 4 131 kb/s Encoded date : UTC 2021-01-21 14:09:20 Writing application : mkvmerge v52.0.0 ('Secret For The Mad') 64-bit Writing library : libebml v1.4.1 + libmatroska v1.6.2 / Lavf58.42.101 Attachments : font.ttf / font2.ttf RIPPED_BY : Anime BluRay Junkies Video ID : 1 Format : AVC Format/Info : Advanced Video Codec Format profile : High@L4 Format settings : CABAC / 6 Ref Frames Format settings, CABAC : Yes Format settings, Reference frames : 6 frames Codec ID : V_MPEG4/ISO/AVC Duration : 23 min 6 s Bit rate : 4 000 kb/s Width : 1 280 pixels Height : 720 pixels Display aspect ratio : 16:9 Frame rate mode : Constant Frame rate : 29.970 (29970/1000) FPS Original frame rate : 29.970 (30000/1001) FPS Color space : YUV Chroma subsampling : 4:2:0 Bit depth : 8 bits Scan type : Progressive Bits/(Pixel*Frame) : 0.145 Stream size : 661 MiB (97%) Writing library : x264 core 142 Encoding settings : cabac=1 / ref=6 / deblock=1:1:1 / analyse=0x3:0x113 / me=umh / subme=8 / psy=1 / psy_rd=0.40:0.00 / mixed_ref=1 / me_range=16 / chroma_me=1 / trellis=1 / 8x8dct=1 / cqm=0 / deadzone=21,11 / fast_pskip=1 / chroma_qp_offset=-2 / threads=10 / lookahead_threads=1 / sliced_threads=0 / nr=0 / decimate=1 / interlaced=0 / bluray_compat=0 / constrained_intra=0 / bframes=0 / weightp=2 / keyint=120 / keyint_min=60 / scenecut=40 / intra_refresh=0 / rc_lookahead=60 / rc=2pass / mbtree=1 / bitrate=4000 / ratetol=1.0 / qcomp=0.60 / qpmin=0 / qpmax=69 / qpstep=4 / cplxblur=20.0 / qblur=0.5 / vbv_maxrate=6000 / vbv_bufsize=9000 / nal_hrd=none / filler=0 / ip_ratio=1.40 / aq=1:0.60 Language : Japanese Default : Yes Forced : Yes Audio ID : 2 Format : AAC LC Format/Info : Advanced Audio Codec Low Complexity Codec ID : A_AAC-2 Duration : 23 min 6 s Bit rate : 128 kb/s Channel(s) : 2 channels Channel layout : L R Sampling rate : 44.1 kHz Frame rate : 43.066 FPS (1024 SPF) Compression mode : Lossy Stream size : 21.2 MiB (3%) Language : Japanese Default : Yes Forced : Yes Text ID : 3 Format : ASS Codec ID : S_TEXT/ASS Codec ID/Info : Advanced Sub Station Alpha Duration : 21 min 25 s Bit rate : 112 b/s Count of elements : 268 Compression mode : Lossless Stream size : 17.7 KiB (0%) Title : Deutsch Language : German Default : Yes Forced : Yes ​
    Code:
    General Unique ID : 26546559777613422779213437448758610975 (0x13F8AE72D3A5D651A9A2746A5911CC1F) Complete name : Digimon.S01E01.Subbed.AAC.1080p.WebRip.x264-ABJ.mkv Format : Matroska Format version : Version 4 File size : 1.31 GiB Duration : 23 min 6 s Overall bit rate : 8 117 kb/s Encoded date : UTC 2021-01-21 14:09:22 Writing application : mkvmerge v52.0.0 ('Secret For The Mad') 64-bit Writing library : libebml v1.4.1 + libmatroska v1.6.2 / Lavf58.42.101 Attachments : font.ttf / font2.ttf RIPPED_BY : Anime BluRay Junkies Video ID : 1 Format : AVC Format/Info : Advanced Video Codec Format profile : High@L4 Format settings : CABAC / 4 Ref Frames Format settings, CABAC : Yes Format settings, Reference frames : 4 frames Codec ID : V_MPEG4/ISO/AVC Duration : 23 min 6 s Bit rate : 8 000 kb/s Width : 1 920 pixels Height : 1 080 pixels Display aspect ratio : 16:9 Frame rate mode : Constant Frame rate : 29.970 (29970/1000) FPS Original frame rate : 29.970 (30000/1001) FPS Color space : YUV Chroma subsampling : 4:2:0 Bit depth : 8 bits Scan type : Progressive Bits/(Pixel*Frame) : 0.129 Stream size : 1.29 GiB (98%) Writing library : x264 core 142 Encoding settings : cabac=1 / ref=4 / deblock=1:1:1 / analyse=0x3:0x113 / me=umh / subme=8 / psy=1 / psy_rd=0.40:0.00 / mixed_ref=1 / me_range=16 / chroma_me=1 / trellis=1 / 8x8dct=1 / cqm=0 / deadzone=21,11 / fast_pskip=1 / chroma_qp_offset=-2 / threads=12 / lookahead_threads=2 / sliced_threads=0 / nr=0 / decimate=1 / interlaced=0 / bluray_compat=0 / constrained_intra=0 / bframes=0 / weightp=2 / keyint=120 / keyint_min=60 / scenecut=40 / intra_refresh=0 / rc_lookahead=60 / rc=2pass / mbtree=1 / bitrate=8000 / ratetol=1.0 / qcomp=0.60 / qpmin=0 / qpmax=69 / qpstep=4 / cplxblur=20.0 / qblur=0.5 / vbv_maxrate=12000 / vbv_bufsize=18000 / nal_hrd=none / filler=0 / ip_ratio=1.40 / aq=1:0.60 Language : Japanese Default : Yes Forced : Yes Audio ID : 2 Format : AAC LC Format/Info : Advanced Audio Codec Low Complexity Codec ID : A_AAC-2 Duration : 23 min 6 s Bit rate : 128 kb/s Channel(s) : 2 channels Channel layout : L R Sampling rate : 44.1 kHz Frame rate : 43.066 FPS (1024 SPF) Compression mode : Lossy Stream size : 21.2 MiB (2%) Language : Japanese Default : Yes Forced : Yes Text ID : 3 Format : ASS Codec ID : S_TEXT/ASS Codec ID/Info : Advanced Sub Station Alpha Duration : 21 min 25 s Bit rate : 112 b/s Count of elements : 268 Compression mode : Lossless Stream size : 17.7 KiB (0%) Title : Deutsch Language : German Default : Yes Forced : Yes ​
    720p: [​IMG]
    1080p: [​IMG]
    Geschützter Bereich
    Registriere dich oder logge dich ein, um den Inhalt sehen zu können
     
    rudizone, E4GLE, Cyriix und 8 anderen gefällt das.

Diese Seite empfehlen