Welcome to our Community
Wanting to join the rest of our members? Feel free to sign up today.
Sign up

Sword Art Online: The Movie - Progressive: Aria of a Starless Night [Ger-Jap-Dub][Ger-Sub][1080p][AAC|Opus][10bit][AV1][BluRay] - Kleinmike

Kleinmike

Uploader
Otaku König
21 März 2021
285
4.758
93
Sword Art Online: The Movie - Progressive: Aria of a Starless Night
Gekijouban Sword Art Online: Progressive - Hoshinaki Yoru no Aria | 劇場版 ソードアート・オンライン プログレッシブ 星なき夜のアリア

15547_300.webp


Beschreibung:
»Sword Art Online: The Movie - Progressive: Aria of a Starless Night« adaptiert die Light Novel »Sword Art Online: Progressive« von Autor Reki Kawahara und erzählt den Beginn der Geschichte rund um Asunas und Kiritos Ankunft im VRMMORPG »Sword Art Online« neu. Der Fokus liegt dabei auf Asunas Vorgeschichte und ihren Einstieg in die virtuelle Welt.

Im Jahr 2022 startet mit »Sword Art Online« (»SAO«) das weltweit erste Full-Dive-Online-Rollenspiel, das Spielern durch die Nutzung des NerveGear, eines Hightech-Headsets, ermöglicht, vollständig in die virtuelle Welt einzutauchen. Asuna hat bis dahin ein relativ behütetes Leben unter Aufsicht ihrer Mutter geführt und ist daher nur wenig mit Videospielen in Berührung gekommen, wird nun aber von ihrer Freundin Misumi »Mito« Tozawa dazu überredet, mit ihr zusammen »SAO« auszuprobieren. Sie gehören damit, zusammen mit dem Betatester Kirito, zu den 10.000 Spielern, die im Spiel gefangen werden: Kurz nach Beginn des Abenteuers wird allen Spielern vom Chefentwickler Kayaba Akihiko höchstpersönlich mitgeteilt, dass sie sich nicht aus dem Spiel ausloggen können und der Tod im Spiel auch den Tod in der echten Welt zur Folge hätte. Die einzige Chance, das Spiel lebend zu verlassen, besteht darin, sich durch die 100 Ebenen des schwebenden Schlosses Aincrad zu kämpfen und das Spiel abzuschließen.

Doch Asuna kommt mit dem Spiel überhaupt nicht klar, wird aber am Anfang von einer Klassenkameradin gestützt. Schon bald muss sie sich als Einzelspielerin durch die Welt und das Spiel auf Leben und Tod schlagen. Auch Kirito, der aufgrund seines Vorwissens als Betatester von anderen nur als »Beater« bezeichnet wird, kämpft sich allein durch die untersten Eben der virtuellen Welt – bis sie eines Tages ein Team bilden …
Quelle: anisearch

Dauer: 1h 37min
Größe: 5.81GB
Sprache: Japanisch | Deutsch
Untertitel: Deutsch
Jahr: 2023
Genres: Action, Abenteuer, Alltagsleben, Fantasy, Drama, Mystery, Scifi
Auflösung: 1920x1080
Format: MKV
Videocodec: AVC
Farbtiefe: 10bit
Audiocodec: AAC
Publisher: Crunchyroll
Hoster: DDownload | Rapidgator

Mediainfo:
Code:
Format                                   : Matroska
Format version                           : Version 4
File size                                : 5.81 GiB
Duration                                 : 1 h 37 min
Overall bit rate                         : 8 545 kb/s
Frame rate                               : 23.976 FPS
Writing application                      : Lavf60.17.100
Writing library                          : Lavf60.17.100
ErrorDetectionType                       : Per level 1
Attachments                              : arial.ttf / arialbd.ttf / arialbi.ttf / ariali.ttf / ARIALN.TTF / ARIALNB.TTF / ARIALNBI.TTF / ARIALNI.TTF / ariblk.ttf / FOT-AnticCezannePro-M.otf / times.ttf / timesbd.ttf / timesbi.ttf / timesi.ttf / Futura ND Medium.ttf / HiraginoGyosyoW8JIS2004.otf / HiraginoMaruGothicW4JIS2004.otf / meiryob.ttc / trebuc.ttf / trebucbd.ttf / trebucbi.ttf / trebucit.ttf / HonMincho-M.ttf / SAOWelcome-Regular.otf / 阿瓜准圆体-bold1.0.ttf / SAOUI-Bold.otf / GandhiSans-Bold.otf / GandhiSans-BoldItalic.otf

Video
ID                                       : 1
Format                                   : AV1
Format/Info                              : AOMedia Video 1
Format profile                           : [email protected]
Codec ID                                 : V_AV1
Duration                                 : 1 h 37 min
Bit rate                                 : 7 080 kb/s
Width                                    : 1 920 pixels
Height                                   : 1 080 pixels
Display aspect ratio                     : 16:9
Frame rate mode                          : Constant
Frame rate                               : 23.976 (24000/1001) FPS
Color space                              : YUV
Chroma subsampling                       : 4:2:0
Bit depth                                : 10 bits
Bits/(Pixel*Frame)                       : 0.142
Stream size                              : 4.80 GiB (83%)
Default                                  : Yes
Forced                                   : No
Color range                              : Limited
Color primaries                          : BT.709
Transfer characteristics                 : BT.709
Matrix coefficients                      : BT.709

Audio #1
ID                                       : 2
Format                                   : AAC LC
Format/Info                              : Advanced Audio Codec Low Complexity
Codec ID                                 : A_AAC-2
Duration                                 : 1 h 37 min
Bit rate                                 : 128 kb/s
Channel(s)                               : 2 channels
Channel layout                           : L R
Sampling rate                            : 44.1 kHz
Frame rate                               : 43.066 FPS (1024 SPF)
Compression mode                         : Lossy
Delay relative to video                  : 959 ms
Stream size                              : 89.1 MiB (1%)
Title                                    : 2.0 AAC [German]
Language                                 : German
Default                                  : Yes
Forced                                   : No

Audio #2
ID                                       : 3
Format                                   : Opus
Codec ID                                 : A_OPUS
Duration                                 : 1 h 37 min
Bit rate                                 : 194 kb/s
Channel(s)                               : 2 channels
Channel layout                           : L R
Sampling rate                            : 48.0 kHz
Frame rate                               : 50.000 FPS (960 SPF)
Bit depth                                : 32 bits
Compression mode                         : Lossy
Stream size                              : 135 MiB (2%)
Title                                    : 2.0 Opus [Japanese]
Writing library                          : Lavf60.17.100
Language                                 : Japanese
Default                                  : No
Forced                                   : No
ENCODER_OPTIONS                          : --bitrate 192 --comp 10

Audio #3
ID                                       : 4
Format                                   : Opus
Codec ID                                 : A_OPUS
Duration                                 : 1 h 37 min
Bit rate                                 : 506 kb/s
Channel(s)                               : 6 channels
Channel layout                           : L R C Lb Rb LFE
Sampling rate                            : 48.0 kHz
Frame rate                               : 50.000 FPS (960 SPF)
Bit depth                                : 32 bits
Compression mode                         : Lossy
Stream size                              : 351 MiB (6%)
Title                                    : 5.1 Opus [Japanese]
Writing library                          : opusenc from opus-tools 0.2-34-g98f3ddc
Language                                 : Japanese
Default                                  : No
Forced                                   : No
ENCODER_OPTIONS                          : --bitrate 576 --comp 10

Audio #4
ID                                       : 5
Format                                   : Opus
Codec ID                                 : A_OPUS
Duration                                 : 1 h 37 min
Bit rate                                 : 612 kb/s
Channel(s)                               : 8 channels
Channel layout                           : L R C Ls Rs Lb Rb LFE
Sampling rate                            : 48.0 kHz
Frame rate                               : 50.000 FPS (960 SPF)
Bit depth                                : 32 bits
Compression mode                         : Lossy
Stream size                              : 425 MiB (7%)
Title                                    : 7.1 Opus [Japanese]
Writing library                          : opusenc from opus-tools 0.2-34-g98f3ddc
Language                                 : Japanese
Default                                  : No
Forced                                   : No
ENCODER_OPTIONS                          : --bitrate 768 --comp 10

Text #1
ID                                       : 6
Format                                   : ASS
Codec ID                                 : S_TEXT/ASS
Codec ID/Info                            : Advanced Sub Station Alpha
Duration                                 : 1 h 18 min
Bit rate                                 : 2 408 b/s
Frame rate                               : 0.514 FPS
Count of elements                        : 2432
Compression mode                         : Lossless
Stream size                              : 1.32 MiB (0%)
Title                                    : Forced
Language                                 : German
Default                                  : Yes
Forced                                   : Yes

Text #2
ID                                       : 7
Format                                   : ASS
Codec ID                                 : S_TEXT/ASS
Codec ID/Info                            : Advanced Sub Station Alpha
Duration                                 : 1 h 33 min
Bit rate                                 : 2 094 b/s
Frame rate                               : 0.638 FPS
Count of elements                        : 3563
Compression mode                         : Lossless
Stream size                              : 1.39 MiB (0%)
Title                                    : Full
Language                                 : German
Default                                  : No
Forced                                   : No


Status:
1080p:
1C659BB55E.png


To view the content, you need to Sign In or Register.


 
Zuletzt bearbeitet:

Kleinmike

Uploader
Otaku König
21 März 2021
285
4.758
93
Anmerkung

Video:
AV1 Encode von ITABD

Audio:
Deutsche Audio Spur stammt vom CR Release somit 128kbits AAC
Japanisch 2.0 PCM von JP BD encodet zu 192kbits Opus
Japanisch 5.1 TrueHD von JP BD encodet zu 576kbits Opus
Japanisch 7.1 TrueHD mit Atmos von ITA BD encodet zu 768kbits Opus

Subs bereitgestellt von b4u Release. Nochmal danke für die Erlaubnis <3
 
  • Like
Reaktionen: Torben10