Wir verwenden Cookies, um deinen Aufenthalt auf Animes.so möglichst angenehm gestalten zu können. Mehr erfahren

Fairy Tail [Ger-Jap-Dub][Ger-Sub][AAC|AC-3|DTS-HD][404p|720p|1080p][BluRay] - Fuuko

Dieses Thema im Forum "Anime Serien (Deutsch)" wurde erstellt von Fuuko, 20. Feb. 2019.

  1. Fuuko

    Fuuko Erfahrener Otaku Otaku König

    Registriert seit:
    19. Sep. 2018
    Beiträge:
    243
    Zustimmungen:
    9.981
    Fairy Tail

    [​IMG]

    [​IMG]
    Lucys Traum war es schon immer die talentierteste Stellarmagierin in ganz Fiore zu werden. Eines Tages trifft sie auf den Feuermagier Natsu Dragneel, Fairy Tails berühmtestes Mitglied und ihre Eintrittskarte zur wildesten Magiergilde, die ihr je begegnet ist. Zusammen mit ihren neuen Freunden Natsu, Happy, Elza und Gray begibt sie sich auf die verrücktesten Missionen, um wieder einmal die Welt zu retten. Ganz nebenbei finden sie dabei neue Mitglieder für die Gilde und neue Schlüssel für Lucys Sammlung von Stellargeistern.
    [​IMG]
    Episoden: 175 / 175
    Spieldauer: 24 Min.
    Source: BluRay
    Release by: Fuuko
    Format: mkv
    Sprache: Deutsch [2.0] | Japanisch [2.0]
    Untertitel: Deutsch (Forced) | Deutsch (Full)
    Audio: AAC [384 kb/s] | AC-3 [384 kb/s] | DTS-HD [1058 kb/s]
    Auflösung : 720x404 | 1280x720 | 1920x1080
    Größe: 350MB | 650MB | 1200MB | 1500MB
    Code:
    Complete name               : Fairy.Tail.E001.German.AAC.DL.BDRiP.x264-Fuuko.mkv
    Format                      : Matroska
    Format version              : Version 4
    File size                   : 339 MiB
    Duration                    : 24 min 34 s
    Overall bit rate            : 1 930 kb/s
    Encoded date                : UTC 2019-10-15 21:52:59
    Writing application         : mkvmerge v10.0.0 ('To Drown In You') 64bit
    Writing library             : libebml v1.3.4 + libmatroska v1.4.5
    
    Video
    ID                          : 1
    Format                      : AVC
    Format/Info                 : Advanced Video Codec
    Format profile              : High@L4.1
    Format settings             : CABAC / 4 Ref Frames
    Format settings, CABAC      : Yes
    Format settings, ReFrames   : 4 frames
    Codec ID                    : V_MPEG4/ISO/AVC
    Duration                    : 24 min 34 s
    Bit rate                    : 1 155 kb/s
    Width                       : 720 pixels
    Height                      : 404 pixels
    Display aspect ratio        : 16:9
    Frame rate mode             : Constant
    Frame rate                  : 23.976 (24000/1001) FPS
    Color space                 : YUV
    Chroma subsampling          : 4:2:0
    Bit depth                   : 8 bits
    Scan type                   : Progressive
    Bits/(Pixel*Frame)          : 0.166
    Stream size                 : 203 MiB (60%)
    Writing library             : x264 core 148
    Encoding settings           : cabac=1 / ref=4 / deblock=1:1:1 / analyse=0x3:0 / me=hex / subme=5 / psy=0 / mixed_ref=0 / me_range=16 / chroma_me=1 / trellis=0 / 8x8dct=1 / cqm=0 / deadzone=21,11 / fast_pskip=0 / chroma_qp_offset=0 / threads=8 / lookahead_threads=2 / sliced_threads=0 / nr=0 / decimate=1 / interlaced=0 / bluray_compat=0 / constrained_intra=0 / bframes=2 / b_pyramid=0 / b_adapt=1 / b_bias=0 / direct=1 / weightb=0 / open_gop=0 / weightp=0 / keyint=24 / keyint_min=13 / scenecut=40 / intra_refresh=0 / rc=crf / mbtree=0 / crf=19.0 / qcomp=0.60 / qpmin=0 / qpmax=69 / qpstep=4 / ip_ratio=1.40 / pb_ratio=1.30 / aq=1:1.00
    Default                     : Yes
    Forced                      : No
    Color range                 : Limited
    Color primaries             : BT.601 NTSC
    Transfer characteristics    : BT.709
    Matrix coefficients         : BT.601
    
    Audio #1
    ID                          : 2
    Format                      : AAC LC
    Format/Info                 : Advanced Audio Codec Low Complexity
    Codec ID                    : A_AAC-2
    Duration                    : 24 min 34 s
    Bit rate                    : 384 kb/s
    Channel(s)                  : 2 channels
    Channel layout              : L R
    Sampling rate               : 48.0 kHz
    Frame rate                  : 46.875 FPS (1024 SPF)
    Compression mode            : Lossy
    Stream size                 : 67.1 MiB (20%)
    Language                    : German
    Default                     : Yes
    Forced                      : No
    
    Audio #2
    ID                          : 3
    Format                      : AAC LC
    Format/Info                 : Advanced Audio Codec Low Complexity
    Codec ID                    : A_AAC-2
    Duration                    : 24 min 34 s
    Bit rate                    : 384 kb/s
    Channel(s)                  : 2 channels
    Channel layout              : L R
    Sampling rate               : 48.0 kHz
    Frame rate                  : 46.875 FPS (1024 SPF)
    Compression mode            : Lossy
    Stream size                 : 67.1 MiB (20%)
    Language                    : Japanese
    Default                     : No
    Forced                      : No
    
    Text #1
    ID                          : 4
    Format                      : PGS
    Muxing mode                 : zlib
    Codec ID                    : S_HDMV/PGS
    Codec ID/Info               : Picture based subtitle format used on BDs/HD-DVDs
    Duration                    : 23 min 20 s
    Bit rate                    : 1 022 b/s
    Count of elements           : 96
    Stream size                 : 175 KiB (0%)
    Language                    : German
    Default                     : No
    Forced                      : No
    
    Text #2
    ID                          : 5
    Format                      : PGS
    Muxing mode                 : zlib
    Codec ID                    : S_HDMV/PGS
    Codec ID/Info               : Picture based subtitle format used on BDs/HD-DVDs
    Duration                    : 24 min 21 s
    Bit rate                    : 9 468 b/s
    Count of elements           : 810
    Stream size                 : 1.65 MiB (0%)
    Language                    : German
    Default                     : No
    Forced                      : No
    
    Menu
    00:00:00.000                : en:(01)00:00:00:000
    00:00:54.971                : en:(02)00:00:54:971
    00:02:23.685                : en:(03)00:02:23:685
    00:12:08.144                : en:(04)00:12:08:144
    00:22:23.842                : en:(05)00:22:23:842
    00:23:54.224                : en:(06)00:23:54:224
    00:24:34.890                : en:(07)00:24:34:890
    Code:
    Complete name               : Fairy.Tail.E001.German.AC3.DL.720p.BluRay.x264-Fuuko.mkv
    Format                      : Matroska
    Format version              : Version 4
    File size                   : 622 MiB
    Duration                    : 24 min 34 s
    Overall bit rate            : 3 540 kb/s
    Encoded date                : UTC 2019-10-15 20:45:55
    Writing application         : mkvmerge v10.0.0 ('To Drown In You') 64bit
    Writing library             : libebml v1.3.4 + libmatroska v1.4.5
    
    Video
    ID                          : 1
    Format                      : AVC
    Format/Info                 : Advanced Video Codec
    Format profile              : High@L4.1
    Format settings             : CABAC / 4 Ref Frames
    Format settings, CABAC      : Yes
    Format settings, ReFrames   : 4 frames
    Codec ID                    : V_MPEG4/ISO/AVC
    Duration                    : 24 min 34 s
    Bit rate                    : 2 750 kb/s
    Width                       : 1 280 pixels
    Height                      : 720 pixels
    Display aspect ratio        : 16:9
    Frame rate mode             : Constant
    Frame rate                  : 23.976 (24000/1001) FPS
    Color space                 : YUV
    Chroma subsampling          : 4:2:0
    Bit depth                   : 8 bits
    Scan type                   : Progressive
    Bits/(Pixel*Frame)          : 0.124
    Stream size                 : 483 MiB (78%)
    Writing library             : x264 core 148
    Encoding settings           : cabac=1 / ref=4 / deblock=1:1:1 / analyse=0x3:0 / me=hex / subme=5 / psy=0 / mixed_ref=0 / me_range=16 / chroma_me=1 / trellis=0 / 8x8dct=1 / cqm=0 / deadzone=21,11 / fast_pskip=0 / chroma_qp_offset=0 / threads=8 / lookahead_threads=2 / sliced_threads=0 / nr=0 / decimate=1 / interlaced=0 / bluray_compat=0 / constrained_intra=0 / bframes=2 / b_pyramid=0 / b_adapt=1 / b_bias=0 / direct=1 / weightb=0 / open_gop=0 / weightp=0 / keyint=24 / keyint_min=13 / scenecut=40 / intra_refresh=0 / rc=crf / mbtree=0 / crf=19.0 / qcomp=0.60 / qpmin=0 / qpmax=69 / qpstep=4 / ip_ratio=1.40 / pb_ratio=1.30 / aq=1:1.00
    Default                     : Yes
    Forced                      : No
    Color range                 : Limited
    Color primaries             : BT.709
    Transfer characteristics    : BT.709
    Matrix coefficients         : BT.709
    
    Audio #1
    ID                          : 2
    Format                      : AC-3
    Format/Info                 : Audio Coding 3
    Commercial name             : Dolby Digital
    Codec ID                    : A_AC3
    Duration                    : 24 min 34 s
    Bit rate mode               : Constant
    Bit rate                    : 384 kb/s
    Channel(s)                  : 2 channels
    Channel layout              : L R
    Sampling rate               : 48.0 kHz
    Frame rate                  : 31.250 FPS (1536 SPF)
    Bit depth                   : 16 bits
    Compression mode            : Lossy
    Stream size                 : 67.5 MiB (11%)
    Language                    : German
    Service kind                : Complete Main
    Default                     : Yes
    Forced                      : No
    
    Audio #2
    ID                          : 3
    Format                      : AC-3
    Format/Info                 : Audio Coding 3
    Commercial name             : Dolby Digital
    Codec ID                    : A_AC3
    Duration                    : 24 min 34 s
    Bit rate mode               : Constant
    Bit rate                    : 384 kb/s
    Channel(s)                  : 2 channels
    Channel layout              : L R
    Sampling rate               : 48.0 kHz
    Frame rate                  : 31.250 FPS (1536 SPF)
    Bit depth                   : 16 bits
    Compression mode            : Lossy
    Stream size                 : 67.5 MiB (11%)
    Language                    : Japanese
    Service kind                : Complete Main
    Default                     : No
    Forced                      : No
    
    Text #1
    ID                          : 4
    Format                      : PGS
    Muxing mode                 : zlib
    Codec ID                    : S_HDMV/PGS
    Codec ID/Info               : Picture based subtitle format used on BDs/HD-DVDs
    Duration                    : 23 min 20 s
    Bit rate                    : 2 025 b/s
    Count of elements           : 96
    Stream size                 : 346 KiB (0%)
    Language                    : German
    Default                     : No
    Forced                      : No
    
    Text #2
    ID                          : 5
    Format                      : PGS
    Muxing mode                 : zlib
    Codec ID                    : S_HDMV/PGS
    Codec ID/Info               : Picture based subtitle format used on BDs/HD-DVDs
    Duration                    : 24 min 21 s
    Bit rate                    : 17.9 kb/s
    Count of elements           : 810
    Stream size                 : 3.11 MiB (1%)
    Language                    : German
    Default                     : No
    Forced                      : No
    
    Menu
    00:00:00.000                : en:(01)00:00:00:000
    00:00:54.971                : en:(02)00:00:54:971
    00:02:23.685                : en:(03)00:02:23:685
    00:12:08.144                : en:(04)00:12:08:144
    00:22:23.842                : en:(05)00:22:23:842
    00:23:54.224                : en:(06)00:23:54:224
    Code:
    Complete name               : Fairy.Tail.E001.German.AC3.DL.1080p.BluRay.x264-Fuuko.mkv
    Format                      : Matroska
    Format version              : Version 4
    File size                   : 1.15 GiB
    Duration                    : 24 min 34 s
    Overall bit rate            : 6 681 kb/s
    Encoded date                : UTC 2019-10-15 20:05:29
    Writing application         : mkvmerge v10.0.0 ('To Drown In You') 64bit
    Writing library             : libebml v1.3.4 + libmatroska v1.4.5
    
    Video
    ID                          : 1
    Format                      : AVC
    Format/Info                 : Advanced Video Codec
    Format profile              : High@L4.1
    Format settings             : CABAC / 4 Ref Frames
    Format settings, CABAC      : Yes
    Format settings, ReFrames   : 4 frames
    Codec ID                    : V_MPEG4/ISO/AVC
    Duration                    : 24 min 34 s
    Bit rate                    : 5 881 kb/s
    Width                       : 1 920 pixels
    Height                      : 1 080 pixels
    Display aspect ratio        : 16:9
    Frame rate mode             : Constant
    Frame rate                  : 23.976 (24000/1001) FPS
    Color space                 : YUV
    Chroma subsampling          : 4:2:0
    Bit depth                   : 8 bits
    Scan type                   : Progressive
    Bits/(Pixel*Frame)          : 0.118
    Stream size                 : 1.01 GiB (88%)
    Writing library             : x264 core 148
    Encoding settings           : cabac=1 / ref=4 / deblock=1:1:1 / analyse=0x3:0 / me=hex / subme=5 / psy=0 / mixed_ref=0 / me_range=16 / chroma_me=1 / trellis=0 / 8x8dct=1 / cqm=0 / deadzone=21,11 / fast_pskip=0 / chroma_qp_offset=0 / threads=8 / lookahead_threads=2 / sliced_threads=0 / nr=0 / decimate=1 / interlaced=0 / bluray_compat=0 / constrained_intra=0 / bframes=2 / b_pyramid=0 / b_adapt=1 / b_bias=0 / direct=1 / weightb=0 / open_gop=0 / weightp=0 / keyint=24 / keyint_min=13 / scenecut=40 / intra_refresh=0 / rc=crf / mbtree=0 / crf=19.0 / qcomp=0.60 / qpmin=0 / qpmax=69 / qpstep=4 / ip_ratio=1.40 / pb_ratio=1.30 / aq=1:1.00
    Default                     : Yes
    Forced                      : No
    Color range                 : Limited
    Color primaries             : BT.709
    Transfer characteristics    : BT.709
    Matrix coefficients         : BT.709
    
    Audio #1
    ID                          : 2
    Format                      : AC-3
    Format/Info                 : Audio Coding 3
    Commercial name             : Dolby Digital
    Codec ID                    : A_AC3
    Duration                    : 24 min 34 s
    Bit rate mode               : Constant
    Bit rate                    : 384 kb/s
    Channel(s)                  : 2 channels
    Channel layout              : L R
    Sampling rate               : 48.0 kHz
    Frame rate                  : 31.250 FPS (1536 SPF)
    Bit depth                   : 16 bits
    Compression mode            : Lossy
    Stream size                 : 67.5 MiB (6%)
    Language                    : German
    Service kind                : Complete Main
    Default                     : Yes
    Forced                      : No
    
    Audio #2
    ID                          : 3
    Format                      : AC-3
    Format/Info                 : Audio Coding 3
    Commercial name             : Dolby Digital
    Codec ID                    : A_AC3
    Duration                    : 24 min 34 s
    Bit rate mode               : Constant
    Bit rate                    : 384 kb/s
    Channel(s)                  : 2 channels
    Channel layout              : L R
    Sampling rate               : 48.0 kHz
    Frame rate                  : 31.250 FPS (1536 SPF)
    Bit depth                   : 16 bits
    Compression mode            : Lossy
    Stream size                 : 67.5 MiB (6%)
    Language                    : Japanese
    Service kind                : Complete Main
    Default                     : No
    Forced                      : No
    
    Text #1
    ID                          : 4
    Format                      : PGS
    Muxing mode                 : zlib
    Codec ID                    : S_HDMV/PGS
    Codec ID/Info               : Picture based subtitle format used on BDs/HD-DVDs
    Duration                    : 23 min 20 s
    Bit rate                    : 3 051 b/s
    Count of elements           : 96
    Stream size                 : 522 KiB (0%)
    Language                    : German
    Default                     : No
    Forced                      : No
    
    Text #2
    ID                          : 5
    Format                      : PGS
    Muxing mode                 : zlib
    Codec ID                    : S_HDMV/PGS
    Codec ID/Info               : Picture based subtitle format used on BDs/HD-DVDs
    Duration                    : 24 min 22 s
    Bit rate                    : 27.6 kb/s
    Count of elements           : 810
    Stream size                 : 4.82 MiB (0%)
    Language                    : German
    Default                     : No
    Forced                      : No
    
    Menu
    00:00:00.000                : en:(01)00:00:00:000
    00:00:54.971                : en:(02)00:00:54:971
    00:02:23.685                : en:(03)00:02:23:685
    00:12:08.144                : en:(04)00:12:08:144
    00:22:23.842                : en:(05)00:22:23:842
    00:23:54.224                : en:(06)00:23:54:224
    Code:
    Complete name               : Fairy.Tail.E001.German.DTS.DL.1080p.BluRay.x264-Fuuko.mkv
    Format                      : Matroska
    Format version              : Version 4
    File size                   : 1.39 GiB
    Duration                    : 24 min 34 s
    Overall bit rate mode       : Variable
    Overall bit rate            : 8 111 kb/s
    Encoded date                : UTC 2019-10-15 18:49:30
    Writing application         : mkvmerge v10.0.0 ('To Drown In You') 64bit
    Writing library             : libebml v1.3.4 + libmatroska v1.4.5
    
    Video
    ID                          : 1
    Format                      : AVC
    Format/Info                 : Advanced Video Codec
    Format profile              : High@L4.1
    Format settings             : CABAC / 4 Ref Frames
    Format settings, CABAC      : Yes
    Format settings, ReFrames   : 4 frames
    Codec ID                    : V_MPEG4/ISO/AVC
    Duration                    : 24 min 34 s
    Bit rate                    : 5 881 kb/s
    Width                       : 1 920 pixels
    Height                      : 1 080 pixels
    Display aspect ratio        : 16:9
    Frame rate mode             : Constant
    Frame rate                  : 23.976 (24000/1001) FPS
    Color space                 : YUV
    Chroma subsampling          : 4:2:0
    Bit depth                   : 8 bits
    Scan type                   : Progressive
    Bits/(Pixel*Frame)          : 0.118
    Stream size                 : 1.01 GiB (72%)
    Writing library             : x264 core 148
    Encoding settings           : cabac=1 / ref=4 / deblock=1:1:1 / analyse=0x3:0 / me=hex / subme=5 / psy=0 / mixed_ref=0 / me_range=16 / chroma_me=1 / trellis=0 / 8x8dct=1 / cqm=0 / deadzone=21,11 / fast_pskip=0 / chroma_qp_offset=0 / threads=8 / lookahead_threads=2 / sliced_threads=0 / nr=0 / decimate=1 / interlaced=0 / bluray_compat=0 / constrained_intra=0 / bframes=2 / b_pyramid=0 / b_adapt=1 / b_bias=0 / direct=1 / weightb=0 / open_gop=0 / weightp=0 / keyint=24 / keyint_min=13 / scenecut=40 / intra_refresh=0 / rc=crf / mbtree=0 / crf=19.0 / qcomp=0.60 / qpmin=0 / qpmax=69 / qpstep=4 / ip_ratio=1.40 / pb_ratio=1.30 / aq=1:1.00
    Default                     : Yes
    Forced                      : No
    Color range                 : Limited
    Color primaries             : BT.709
    Transfer characteristics    : BT.709
    Matrix coefficients         : BT.709
    
    Audio #1
    ID                          : 2
    Format                      : DTS XLL
    Format/Info                 : Digital Theater Systems
    Commercial name             : DTS-HD Master Audio
    Codec ID                    : A_DTS
    Duration                    : 24 min 34 s
    Bit rate mode               : Variable
    Bit rate                    : 1 058 kb/s
    Channel(s)                  : 2 channels
    Channel layout              : L R
    Sampling rate               : 48.0 kHz
    Frame rate                  : 93.750 FPS (512 SPF)
    Bit depth                   : 16 bits
    Compression mode            : Lossless
    Stream size                 : 186 MiB (13%)
    Language                    : German
    Default                     : Yes
    Forced                      : No
    
    Audio #2
    ID                          : 3
    Format                      : DTS XLL
    Format/Info                 : Digital Theater Systems
    Commercial name             : DTS-HD Master Audio
    Codec ID                    : A_DTS
    Duration                    : 24 min 34 s
    Bit rate mode               : Variable
    Bit rate                    : 1 137 kb/s
    Channel(s)                  : 2 channels
    Channel layout              : L R
    Sampling rate               : 48.0 kHz
    Frame rate                  : 93.750 FPS (512 SPF)
    Bit depth                   : 16 bits
    Compression mode            : Lossless
    Stream size                 : 200 MiB (14%)
    Language                    : Japanese
    Default                     : No
    Forced                      : No
    
    Text #1
    ID                          : 4
    Format                      : PGS
    Muxing mode                 : zlib
    Codec ID                    : S_HDMV/PGS
    Codec ID/Info               : Picture based subtitle format used on BDs/HD-DVDs
    Duration                    : 23 min 20 s
    Bit rate                    : 3 051 b/s
    Count of elements           : 96
    Stream size                 : 522 KiB (0%)
    Language                    : German
    Default                     : No
    Forced                      : No
    
    Text #2
    ID                          : 5
    Format                      : PGS
    Muxing mode                 : zlib
    Codec ID                    : S_HDMV/PGS
    Codec ID/Info               : Picture based subtitle format used on BDs/HD-DVDs
    Duration                    : 24 min 21 s
    Bit rate                    : 27.7 kb/s
    Count of elements           : 810
    Stream size                 : 4.82 MiB (0%)
    Language                    : German
    Default                     : No
    Forced                      : No
    
    Menu
    00:00:00.000                : en:(01)00:00:00:000
    00:00:54.971                : en:(02)00:00:54:971
    00:02:23.685                : en:(03)00:02:23:685
    00:12:08.144                : en:(04)00:12:08:144
    00:22:23.842                : en:(05)00:22:23:842
    00:23:54.224                : en:(06)00:23:54:224
    [​IMG]
    404p AAC [​IMG]
    720p AC3 [​IMG]
    1080p AC3 [​IMG]
    1080p DTS [​IMG]

    Geschützter Bereich
    Registriere dich oder logge dich ein, um den Inhalt sehen zu können
     
    Zuletzt bearbeitet: 20. Okt. 2019
  2. Fuuko

    Fuuko Erfahrener Otaku Otaku König

    Registriert seit:
    19. Sep. 2018
    Beiträge:
    243
    Zustimmungen:
    9.981
    ~ Vol.1 - 7 mit den Episoden 001 - 175 hinzugefügt ~
    Diese Boxreihe ist abgeschlossen
     
    flippi86, Ar0r404, songucku und 2 anderen gefällt das.