Welcome to our Community
Wanting to join the rest of our members? Feel free to sign up today.
Sign up

Sword Art Online Alicization S03 [Ger-Jap-Dub][Ger-Sub][AC-3|DTS-HD][720p|1080p][BluRay] - Fuuko

Azugo

H͓̽u͓̽g͓̽o͓̽ ͓̽&͓̽ ͓̽A͓̽z͓̽u͓̽r͓̽a͓̽
Otaku Gott
Uploader
25 März 2020
3.569
35.401
118
Sword Art Online: Alicization
Staffel 3


3Ehvx0m.jpg
9Ss2Jvs.jpg
ZmIHP7f.jpg
X5mVzGu.jpg


oie_bchbujbgr3vm-png.30595
Rath ist dabei eine neue Full-Dive Technologie zu entwickeln und kein anderer als Kazuto Kirito Kirigaya darf den neuen Soul Translator testen. Leider behält er keine Erinnerungen an die neue VR-Welt namens Underworld, in die er regelmässig abtaucht. Doch dann findet er sich plötzlich in jener Welt wieder, ohne eine Möglichkeit zur Kontaktaufnahme mit der Aussenwelt. Er erinnert sich nur noch daran, dass er mit Asuna auf dem Heimweg von einem Treffen mit Sinon war. Was ist passiert? Und noch viel wichtiger: Wie gelangt er zurück in die Realität?


oie_bchbujbgr3vm1-png.30596


Episoden: 24 / 24 + 18.5
Spieldauer: 24 Min.
Source: Deutsche Original BluRay
Release by: Fuuko
Format: mkv
Sprache: Deutsch [2.0] | Japanisch [2.0]
Untertitel: Deutsch (Full)
Audio: AC-3 [384 kb/s] | DTS-HD [~1000 kb/s]
Auflösung : 1280x720 | 1920x1080
Größe: 800MB | 1900MB | 2200MB
Hoster:
rapidgator-gif.30742
Rapidgator,
ddownload-gif.30720
ddownload

oie_bchbujbgr3vm2-png.30597

Code:
Complete name               : Sword.Art.Online.S03E02.German.AC3.DL.720p.BluRay.x264-Fuuko.mkv
Format                      : Matroska
Format version              : Version 4
File size                   : 758 MiB
Duration                    : 23 min 42 s
Overall bit rate            : 4 474 kb/s
Encoded date                : UTC 2019-11-27 13:55:51
Writing application         : mkvmerge v10.0.0 ('To Drown In You') 64bit
Writing library             : libebml v1.3.4 + libmatroska v1.4.5

Video
ID                          : 1
Format                      : AVC
Format/Info                 : Advanced Video Codec
Format profile              : [email protected]
Format settings             : CABAC / 4 Ref Frames
Format settings, CABAC      : Yes
Format settings, ReFrames   : 4 frames
Codec ID                    : V_MPEG4/ISO/AVC
Duration                    : 23 min 42 s
Bit rate                    : 3 687 kb/s
Width                       : 1 280 pixels
Height                      : 720 pixels
Display aspect ratio        : 16:9
Frame rate mode             : Constant
Frame rate                  : 23.976 (24000/1001) FPS
Color space                 : YUV
Chroma subsampling          : 4:2:0
Bit depth                   : 8 bits
Scan type                   : Progressive
Bits/(Pixel*Frame)          : 0.167
Stream size                 : 625 MiB (82%)
Writing library             : x264 core 157 r2935 545de2f
Encoding settings           : cabac=1 / ref=3 / deblock=1:0:0 / analyse=0x3:0x133 / me=umh / subme=9 / psy=1 / psy_rd=1.00:0.00 / mixed_ref=1 / me_range=32 / chroma_me=1 / trellis=2 / 8x8dct=1 / cqm=0 / deadzone=21,11 / fast_pskip=0 / chroma_qp_offset=-2 / threads=12 / lookahead_threads=1 / sliced_threads=0 / nr=0 / decimate=0 / interlaced=0 / bluray_compat=0 / constrained_intra=0 / bframes=3 / b_pyramid=2 / b_adapt=2 / b_bias=0 / direct=3 / weightb=1 / open_gop=0 / weightp=2 / keyint=250 / keyint_min=24 / scenecut=40 / intra_refresh=0 / rc_lookahead=48 / rc=crf / mbtree=1 / crf=16.0 / qcomp=0.70 / qpmin=0 / qpmax=69 / qpstep=4 / vbv_maxrate=62500 / vbv_bufsize=78125 / crf_max=0.0 / nal_hrd=none / filler=0 / ip_ratio=1.40 / aq=3:1.00
Default                     : Yes
Forced                      : No
Color range                 : Limited
Color primaries             : BT.709
Transfer characteristics    : BT.709
Matrix coefficients         : BT.709

Audio #1
ID                          : 2
Format                      : AC-3
Format/Info                 : Audio Coding 3
Commercial name             : Dolby Digital
Codec ID                    : A_AC3
Duration                    : 23 min 41 s
Bit rate mode               : Constant
Bit rate                    : 384 kb/s
Channel(s)                  : 2 channels
Channel layout              : L R
Sampling rate               : 48.0 kHz
Frame rate                  : 31.250 FPS (1536 SPF)
Bit depth                   : 16 bits
Compression mode            : Lossy
Stream size                 : 65.1 MiB (9%)
Language                    : German
Service kind                : Complete Main
Default                     : Yes
Forced                      : No

Audio #2
ID                          : 3
Format                      : AC-3
Format/Info                 : Audio Coding 3
Commercial name             : Dolby Digital
Codec ID                    : A_AC3
Duration                    : 23 min 41 s
Bit rate mode               : Constant
Bit rate                    : 384 kb/s
Channel(s)                  : 2 channels
Channel layout              : L R
Sampling rate               : 48.0 kHz
Frame rate                  : 31.250 FPS (1536 SPF)
Bit depth                   : 16 bits
Compression mode            : Lossy
Stream size                 : 65.1 MiB (9%)
Language                    : Japanese
Service kind                : Complete Main
Default                     : No
Forced                      : No

Text
ID                          : 4
Format                      : PGS
Muxing mode                 : zlib
Codec ID                    : S_HDMV/PGS
Codec ID/Info               : Picture based subtitle format used on BDs/HD-DVDs
Duration                    : 23 min 15 s
Bit rate                    : 17.2 kb/s
Count of elements           : 574
Stream size                 : 2.85 MiB (0%)
Language                    : German
Default                     : No
Forced                      : No

Menu
00:00:00.000                : en:(01)00:00:00:000
00:02:19.013                : en:(02)00:02:19:013
00:03:49.020                : en:(03)00:03:49:020
00:12:07.977                : en:(04)00:12:07:977
00:17:37.890                : en:(05)00:17:37:890
00:22:06.908                : en:(06)00:22:06:908
00:23:35.997                : en:(07)00:23:35:997
Code:
Complete name               : Sword.Art.Online.S03E02.German.AC3.DL.1080p.BluRay.x264-Fuuko.mkv
Format                      : Matroska
Format version              : Version 4
File size                   : 1.85 GiB
Duration                    : 23 min 42 s
Overall bit rate            : 11.1 Mb/s
Encoded date                : UTC 2019-11-27 13:56:30
Writing application         : mkvmerge v10.0.0 ('To Drown In You') 64bit
Writing library             : libebml v1.3.4 + libmatroska v1.4.5

Video
ID                          : 1
Format                      : AVC
Format/Info                 : Advanced Video Codec
Format profile              : [email protected]
Format settings             : CABAC / 4 Ref Frames
Format settings, CABAC      : Yes
Format settings, ReFrames   : 4 frames
Codec ID                    : V_MPEG4/ISO/AVC
Duration                    : 23 min 42 s
Bit rate                    : 10.4 Mb/s
Width                       : 1 920 pixels
Height                      : 1 080 pixels
Display aspect ratio        : 16:9
Frame rate mode             : Constant
Frame rate                  : 23.976 (24000/1001) FPS
Color space                 : YUV
Chroma subsampling          : 4:2:0
Bit depth                   : 8 bits
Scan type                   : Progressive
Bits/(Pixel*Frame)          : 0.208
Stream size                 : 1.72 GiB (93%)
Writing library             : x264 core 157 r2935 545de2f
Encoding settings           : cabac=1 / ref=3 / deblock=1:0:0 / analyse=0x3:0x133 / me=umh / subme=9 / psy=1 / psy_rd=1.00:0.00 / mixed_ref=1 / me_range=32 / chroma_me=1 / trellis=2 / 8x8dct=1 / cqm=0 / deadzone=21,11 / fast_pskip=0 / chroma_qp_offset=-2 / threads=12 / lookahead_threads=1 / sliced_threads=0 / nr=0 / decimate=0 / interlaced=0 / bluray_compat=0 / constrained_intra=0 / bframes=3 / b_pyramid=2 / b_adapt=2 / b_bias=0 / direct=3 / weightb=1 / open_gop=0 / weightp=2 / keyint=250 / keyint_min=24 / scenecut=40 / intra_refresh=0 / rc_lookahead=48 / rc=crf / mbtree=1 / crf=16.0 / qcomp=0.70 / qpmin=0 / qpmax=69 / qpstep=4 / vbv_maxrate=62500 / vbv_bufsize=78125 / crf_max=0.0 / nal_hrd=none / filler=0 / ip_ratio=1.40 / aq=3:1.00
Default                     : Yes
Forced                      : No
Color range                 : Limited
Color primaries             : BT.709
Transfer characteristics    : BT.709
Matrix coefficients         : BT.709

Audio #1
ID                          : 2
Format                      : AC-3
Format/Info                 : Audio Coding 3
Commercial name             : Dolby Digital
Codec ID                    : A_AC3
Duration                    : 23 min 41 s
Bit rate mode               : Constant
Bit rate                    : 384 kb/s
Channel(s)                  : 2 channels
Channel layout              : L R
Sampling rate               : 48.0 kHz
Frame rate                  : 31.250 FPS (1536 SPF)
Bit depth                   : 16 bits
Compression mode            : Lossy
Stream size                 : 65.1 MiB (3%)
Language                    : German
Service kind                : Complete Main
Default                     : Yes
Forced                      : No

Audio #2
ID                          : 3
Format                      : AC-3
Format/Info                 : Audio Coding 3
Commercial name             : Dolby Digital
Codec ID                    : A_AC3
Duration                    : 23 min 41 s
Bit rate mode               : Constant
Bit rate                    : 384 kb/s
Channel(s)                  : 2 channels
Channel layout              : L R
Sampling rate               : 48.0 kHz
Frame rate                  : 31.250 FPS (1536 SPF)
Bit depth                   : 16 bits
Compression mode            : Lossy
Stream size                 : 65.1 MiB (3%)
Language                    : Japanese
Service kind                : Complete Main
Default                     : No
Forced                      : No

Text
ID                          : 4
Format                      : PGS
Muxing mode                 : zlib
Codec ID                    : S_HDMV/PGS
Codec ID/Info               : Picture based subtitle format used on BDs/HD-DVDs
Duration                    : 23 min 15 s
Bit rate                    : 17.2 kb/s
Count of elements           : 574
Stream size                 : 2.85 MiB (0%)
Language                    : German
Default                     : No
Forced                      : No

Menu
00:00:00.000                : en:(01)00:00:00:000
00:02:19.013                : en:(02)00:02:19:013
00:03:49.020                : en:(03)00:03:49:020
00:12:07.977                : en:(04)00:12:07:977
00:17:37.890                : en:(05)00:17:37:890
00:22:06.908                : en:(06)00:22:06:908
00:23:35.997                : en:(07)00:23:35:997
Code:
Complete name               : Sword.Art.Online.S03E02.German.DTS.DL.1080p.BluRay.x264-Fuuko.mkv
Format                      : Matroska
Format version              : Version 4
File size                   : 2.05 GiB
Duration                    : 23 min 42 s
Overall bit rate mode       : Variable
Overall bit rate            : 12.4 Mb/s
Encoded date                : UTC 2019-11-27 13:57:42
Writing application         : mkvmerge v10.0.0 ('To Drown In You') 64bit
Writing library             : libebml v1.3.4 + libmatroska v1.4.5

Video
ID                          : 1
Format                      : AVC
Format/Info                 : Advanced Video Codec
Format profile              : [email protected]
Format settings             : CABAC / 4 Ref Frames
Format settings, CABAC      : Yes
Format settings, ReFrames   : 4 frames
Codec ID                    : V_MPEG4/ISO/AVC
Duration                    : 23 min 42 s
Bit rate                    : 10.4 Mb/s
Width                       : 1 920 pixels
Height                      : 1 080 pixels
Display aspect ratio        : 16:9
Frame rate mode             : Constant
Frame rate                  : 23.976 (24000/1001) FPS
Color space                 : YUV
Chroma subsampling          : 4:2:0
Bit depth                   : 8 bits
Scan type                   : Progressive
Bits/(Pixel*Frame)          : 0.208
Stream size                 : 1.72 GiB (84%)
Writing library             : x264 core 157 r2935 545de2f
Encoding settings           : cabac=1 / ref=3 / deblock=1:0:0 / analyse=0x3:0x133 / me=umh / subme=9 / psy=1 / psy_rd=1.00:0.00 / mixed_ref=1 / me_range=32 / chroma_me=1 / trellis=2 / 8x8dct=1 / cqm=0 / deadzone=21,11 / fast_pskip=0 / chroma_qp_offset=-2 / threads=12 / lookahead_threads=1 / sliced_threads=0 / nr=0 / decimate=0 / interlaced=0 / bluray_compat=0 / constrained_intra=0 / bframes=3 / b_pyramid=2 / b_adapt=2 / b_bias=0 / direct=3 / weightb=1 / open_gop=0 / weightp=2 / keyint=250 / keyint_min=24 / scenecut=40 / intra_refresh=0 / rc_lookahead=48 / rc=crf / mbtree=1 / crf=16.0 / qcomp=0.70 / qpmin=0 / qpmax=69 / qpstep=4 / vbv_maxrate=62500 / vbv_bufsize=78125 / crf_max=0.0 / nal_hrd=none / filler=0 / ip_ratio=1.40 / aq=3:1.00
Default                     : Yes
Forced                      : No
Color range                 : Limited
Color primaries             : BT.709
Transfer characteristics    : BT.709
Matrix coefficients         : BT.709

Audio #1
ID                          : 2
Format                      : DTS XLL
Format/Info                 : Digital Theater Systems
Commercial name             : DTS-HD Master Audio
Codec ID                    : A_DTS
Duration                    : 23 min 41 s
Bit rate mode               : Variable
Bit rate                    : 1 008 kb/s
Channel(s)                  : 2 channels
Channel layout              : L R
Sampling rate               : 48.0 kHz
Frame rate                  : 93.750 FPS (512 SPF)
Bit depth                   : 16 bits
Compression mode            : Lossless
Stream size                 : 171 MiB (8%)
Language                    : German
Default                     : Yes
Forced                      : No

Audio #2
ID                          : 3
Format                      : DTS XLL
Format/Info                 : Digital Theater Systems
Commercial name             : DTS-HD Master Audio
Codec ID                    : A_DTS
Duration                    : 23 min 41 s
Bit rate mode               : Variable
Bit rate                    : 997 kb/s
Channel(s)                  : 2 channels
Channel layout              : L R
Sampling rate               : 48.0 kHz
Frame rate                  : 93.750 FPS (512 SPF)
Bit depth                   : 16 bits
Compression mode            : Lossless
Stream size                 : 169 MiB (8%)
Language                    : Japanese
Default                     : No
Forced                      : No

Text
ID                          : 4
Format                      : PGS
Muxing mode                 : zlib
Codec ID                    : S_HDMV/PGS
Codec ID/Info               : Picture based subtitle format used on BDs/HD-DVDs
Duration                    : 23 min 14 s
Bit rate                    : 6 597 b/s
Count of elements           : 574
Stream size                 : 1.10 MiB (0%)
Language                    : German
Default                     : No
Forced                      : No

Menu
00:00:00.000                : en:(01)00:00:00:000
00:02:19.013                : en:(02)00:02:19:013
00:03:49.020                : en:(03)00:03:49:020
00:12:07.977                : en:(04)00:12:07:977
00:17:37.890                : en:(05)00:17:37:890
00:22:06.908                : en:(06)00:22:06:908
00:23:35.997                : en:(07)00:23:35:997
00:23:41.962                : en:(08)00:23:41:962

oie_bchbujbgr3vm3-png.30598

cooltext396117611400625-png.30739

4EFEC0202B.png

cooltext3961176114006251-png.30741

02D303E54B.png

To view the content, you need to Sign In or Register.