1. Die erweiterte Suche funktioniert wieder. Die LiveSearch ist vorübergehend deaktiviert

Wir verwenden Cookies, um deinen Aufenthalt auf Animes.so möglichst angenehm gestalten zu können. Mehr erfahren

Fairy Tail [Laufend][Ger-Jap-Dub][Ger-Sub][AAC|AC-3|DTS-HD][404p|720p|1080p][BluRay] - Fuuko

Dieses Thema im Forum "Serien (GerDub)" wurde erstellt von Fuuko, 20. Feb. 2019.

  1. Fuuko

    Fuuko Erfahrener Otaku Otaku König

    Registriert seit:
    19. Sep. 2018
    Beiträge:
    159
    Zustimmungen:
    5.742
    Fairy Tail
    Episode 99 - 124 (Box 5)


    [​IMG]

    [​IMG]
    Lucys Traum war es schon immer die talentierteste Stellarmagierin in ganz Fiore zu werden. Eines Tages trifft sie auf den Feuermagier Natsu Dragneel, Fairy Tails berühmtestes Mitglied und ihre Eintrittskarte zur wildesten Magiergilde, die ihr je begegnet ist. Zusammen mit ihren neuen Freunden Natsu, Happy, Elza und Gray begibt sie sich auf die verrücktesten Missionen, um wieder einmal die Welt zu retten. Ganz nebenbei finden sie dabei neue Mitglieder für die Gilde und neue Schlüssel für Lucys Sammlung von Stellargeistern.
    [​IMG]
    Episoden: 26/175
    Spieldauer: 24 Min.
    Source: BluRay
    Release by: Fuuko
    Format: mkv
    Sprache: Deutsch | Japanisch
    Untertitel: Deutsch (Forced) | Deutsch (Full)
    Auflösung : 720x404 | 1280x720 | 1920x1080
    Größe: 350MB | 750MB | 1750MB
    Code:
    Complete name               : Fairy.Tail.E099.German.AAC.DL.404p.BluRay.x264-Fuuko.mkv
    Format                      : Matroska
    Format version              : Version 4
    File size                   : 340 MiB
    Duration                    : 24 min 34 s
    Overall bit rate            : 1 933 kb/s
    Encoded date                : UTC 2019-02-20 17:33:46
    Writing application         : mkvmerge v10.0.0 ('To Drown In You') 64bit
    Writing library             : libebml v1.3.4 + libmatroska v1.4.5
    
    Video
    ID                          : 1
    Format                      : AVC
    Format/Info                 : Advanced Video Codec
    Format profile              : High@L4.1
    Format settings             : CABAC / 3 Ref Frames
    Format settings, CABAC      : Yes
    Format settings, ReFrames   : 3 frames
    Codec ID                    : V_MPEG4/ISO/AVC
    Duration                    : 24 min 33 s
    Bit rate                    : 1 543 kb/s
    Width                       : 720 pixels
    Height                      : 404 pixels
    Display aspect ratio        : 16:9
    Frame rate mode             : Constant
    Frame rate                  : 23.976 (24000/1001) FPS
    Color space                 : YUV
    Chroma subsampling          : 4:2:0
    Bit depth                   : 8 bits
    Scan type                   : Progressive
    Bits/(Pixel*Frame)          : 0.221
    Stream size                 : 271 MiB (80%)
    Writing library             : x264 core 148
    Encoding settings           : cabac=1 / ref=3 / deblock=1:-1:-1 / analyse=0x3:0 / me=hex / subme=5 / psy=1 / psy_rd=1.00:0.00 / mixed_ref=0 / me_range=16 / chroma_me=1 / trellis=1 / 8x8dct=1 / cqm=0 / deadzone=21,11 / fast_pskip=0 / chroma_qp_offset=0 / threads=8 / lookahead_threads=2 / sliced_threads=0 / nr=0 / decimate=1 / interlaced=0 / bluray_compat=0 / constrained_intra=0 / bframes=2 / b_pyramid=0 / b_adapt=1 / b_bias=0 / direct=1 / weightb=0 / open_gop=0 / weightp=0 / keyint=24 / keyint_min=2 / scenecut=40 / intra_refresh=0 / rc=2pass / mbtree=0 / bitrate=1543 / ratetol=1.0 / qcomp=0.60 / qpmin=0 / qpmax=69 / qpstep=4 / cplxblur=20.0 / qblur=0.5 / ip_ratio=1.40 / pb_ratio=1.30 / aq=1:1.00
    Default                     : Yes
    Forced                      : No
    Color range                 : Limited
    Color primaries             : BT.601 NTSC
    Transfer characteristics    : BT.709
    Matrix coefficients         : BT.601
    
    Audio #1
    ID                          : 2
    Format                      : AAC LC
    Format/Info                 : Advanced Audio Codec Low Complexity
    Codec ID                    : A_AAC-2
    Duration                    : 24 min 34 s
    Bit rate                    : 192 kb/s
    Channel(s)                  : 2 channels
    Channel layout              : L R
    Sampling rate               : 48.0 kHz
    Frame rate                  : 46.875 FPS (1024 SPF)
    Compression mode            : Lossy
    Stream size                 : 33.3 MiB (10%)
    Language                    : German
    Default                     : Yes
    Forced                      : No
    
    Audio #2
    ID                          : 3
    Format                      : AAC LC
    Format/Info                 : Advanced Audio Codec Low Complexity
    Codec ID                    : A_AAC-2
    Duration                    : 24 min 34 s
    Bit rate                    : 192 kb/s
    Channel(s)                  : 2 channels
    Channel layout              : L R
    Sampling rate               : 48.0 kHz
    Frame rate                  : 46.875 FPS (1024 SPF)
    Compression mode            : Lossy
    Stream size                 : 33.3 MiB (10%)
    Language                    : Japanese
    Default                     : No
    Forced                      : No
    
    Text #1
    ID                          : 4
    Format                      : PGS
    Muxing mode                 : zlib
    Codec ID                    : S_HDMV/PGS
    Codec ID/Info               : Picture based subtitle format used on BDs/HD-DVDs
    Duration                    : 23 min 21 s
    Bit rate                    : 824 b/s
    Count of elements           : 70
    Stream size                 : 141 KiB (0%)
    Language                    : German
    Default                     : No
    Forced                      : No
    
    Text #2
    ID                          : 5
    Format                      : PGS
    Muxing mode                 : zlib
    Codec ID                    : S_HDMV/PGS
    Codec ID/Info               : Picture based subtitle format used on BDs/HD-DVDs
    Duration                    : 24 min 23 s
    Bit rate                    : 7 151 b/s
    Count of elements           : 702
    Stream size                 : 1.25 MiB (0%)
    Language                    : German
    Default                     : No
    Forced                      : No
    
    Menu
    00:00:00.000                : en:(01)00:00:00:000
    00:00:39.289                : en:(02)00:00:39:289
    00:02:09.295                : en:(03)00:02:09:295
    00:04:30.937                : en:(04)00:04:30:937
    00:12:25.327                : en:(05)00:12:25:327
    00:22:25.177                : en:(06)00:22:25:177
    00:23:54.891                : en:(07)00:23:54:891
    00:24:34.681                : en:(08)00:24:34:681
    Code:
    Complete name               : Fairy.Tail.E099.German.AC3.DL.720p.BluRay.x264-Fuuko.mkv
    Format                      : Matroska
    Format version              : Version 4
    File size                   : 721 MiB
    Duration                    : 24 min 34 s
    Overall bit rate            : 4 099 kb/s
    Encoded date                : UTC 2019-02-20 17:24:53
    Writing application         : mkvmerge v10.0.0 ('To Drown In You') 64bit
    Writing library             : libebml v1.3.4 + libmatroska v1.4.5
    
    Video
    ID                          : 1
    Format                      : AVC
    Format/Info                 : Advanced Video Codec
    Format profile              : High@L4.1
    Format settings             : CABAC / 3 Ref Frames
    Format settings, CABAC      : Yes
    Format settings, ReFrames   : 3 frames
    Codec ID                    : V_MPEG4/ISO/AVC
    Duration                    : 24 min 33 s
    Bit rate                    : 3 315 kb/s
    Width                       : 1 280 pixels
    Height                      : 720 pixels
    Display aspect ratio        : 16:9
    Frame rate mode             : Constant
    Frame rate                  : 23.976 (24000/1001) FPS
    Color space                 : YUV
    Chroma subsampling          : 4:2:0
    Bit depth                   : 8 bits
    Scan type                   : Progressive
    Bits/(Pixel*Frame)          : 0.150
    Stream size                 : 583 MiB (81%)
    Writing library             : x264 core 148
    Encoding settings           : cabac=1 / ref=3 / deblock=1:-1:-1 / analyse=0x3:0 / me=hex / subme=5 / psy=1 / psy_rd=1.00:0.00 / mixed_ref=0 / me_range=16 / chroma_me=1 / trellis=1 / 8x8dct=1 / cqm=0 / deadzone=21,11 / fast_pskip=0 / chroma_qp_offset=0 / threads=8 / lookahead_threads=2 / sliced_threads=0 / nr=0 / decimate=1 / interlaced=0 / bluray_compat=0 / constrained_intra=0 / bframes=2 / b_pyramid=0 / b_adapt=1 / b_bias=0 / direct=1 / weightb=0 / open_gop=0 / weightp=0 / keyint=24 / keyint_min=2 / scenecut=40 / intra_refresh=0 / rc=2pass / mbtree=0 / bitrate=3315 / ratetol=1.0 / qcomp=0.60 / qpmin=0 / qpmax=69 / qpstep=4 / cplxblur=20.0 / qblur=0.5 / ip_ratio=1.40 / pb_ratio=1.30 / aq=1:1.00
    Default                     : Yes
    Forced                      : No
    Color range                 : Limited
    Color primaries             : BT.709
    Transfer characteristics    : BT.709
    Matrix coefficients         : BT.709
    
    Audio #1
    ID                          : 2
    Format                      : AC-3
    Format/Info                 : Audio Coding 3
    Commercial name             : Dolby Digital
    Codec ID                    : A_AC3
    Duration                    : 24 min 34 s
    Bit rate mode               : Constant
    Bit rate                    : 384 kb/s
    Channel(s)                  : 2 channels
    Channel layout              : L R
    Sampling rate               : 48.0 kHz
    Frame rate                  : 31.250 FPS (1536 SPF)
    Bit depth                   : 16 bits
    Compression mode            : Lossy
    Stream size                 : 67.5 MiB (9%)
    Language                    : German
    Service kind                : Complete Main
    Default                     : Yes
    Forced                      : No
    
    Audio #2
    ID                          : 3
    Format                      : AC-3
    Format/Info                 : Audio Coding 3
    Commercial name             : Dolby Digital
    Codec ID                    : A_AC3
    Duration                    : 24 min 34 s
    Bit rate mode               : Constant
    Bit rate                    : 384 kb/s
    Channel(s)                  : 2 channels
    Channel layout              : L R
    Sampling rate               : 48.0 kHz
    Frame rate                  : 31.250 FPS (1536 SPF)
    Bit depth                   : 16 bits
    Compression mode            : Lossy
    Stream size                 : 67.5 MiB (9%)
    Language                    : Japanese
    Service kind                : Complete Main
    Default                     : No
    Forced                      : No
    
    Text #1
    ID                          : 4
    Format                      : PGS
    Muxing mode                 : zlib
    Codec ID                    : S_HDMV/PGS
    Codec ID/Info               : Picture based subtitle format used on BDs/HD-DVDs
    Duration                    : 23 min 21 s
    Bit rate                    : 1 633 b/s
    Count of elements           : 70
    Stream size                 : 280 KiB (0%)
    Language                    : German
    Default                     : No
    Forced                      : No
    
    Text #2
    ID                          : 5
    Format                      : PGS
    Muxing mode                 : zlib
    Codec ID                    : S_HDMV/PGS
    Codec ID/Info               : Picture based subtitle format used on BDs/HD-DVDs
    Duration                    : 24 min 24 s
    Bit rate                    : 13.4 kb/s
    Count of elements           : 702
    Stream size                 : 2.34 MiB (0%)
    Language                    : German
    Default                     : No
    Forced                      : No
    
    Menu
    00:00:00.000                : en:(01)00:00:00:000
    00:00:39.289                : en:(02)00:00:39:289
    00:02:09.295                : en:(03)00:02:09:295
    00:04:30.937                : en:(04)00:04:30:937
    00:12:25.327                : en:(05)00:12:25:327
    00:22:25.177                : en:(06)00:22:25:177
    00:23:54.891                : en:(07)00:23:54:891
    Code:
    Complete name               : Fairy.Tail.E099.German.DTS.DL.1080p.BluRay.x264-Fuuko.mkv
    Format                      : Matroska
    Format version              : Version 4
    File size                   : 1.67 GiB
    Duration                    : 24 min 34 s
    Overall bit rate mode       : Variable
    Overall bit rate            : 9 740 kb/s
    Encoded date                : UTC 2019-02-20 16:39:21
    Writing application         : mkvmerge v10.0.0 ('To Drown In You') 64bit
    Writing library             : libebml v1.3.4 + libmatroska v1.4.5
    
    Video
    ID                          : 1
    Format                      : AVC
    Format/Info                 : Advanced Video Codec
    Format profile              : High@L4.1
    Format settings             : CABAC / 3 Ref Frames
    Format settings, CABAC      : Yes
    Format settings, ReFrames   : 3 frames
    Codec ID                    : V_MPEG4/ISO/AVC
    Duration                    : 24 min 33 s
    Bit rate                    : 7 458 kb/s
    Width                       : 1 920 pixels
    Height                      : 1 080 pixels
    Display aspect ratio        : 16:9
    Frame rate mode             : Constant
    Frame rate                  : 23.976 (24000/1001) FPS
    Color space                 : YUV
    Chroma subsampling          : 4:2:0
    Bit depth                   : 8 bits
    Scan type                   : Progressive
    Bits/(Pixel*Frame)          : 0.150
    Stream size                 : 1.28 GiB (77%)
    Writing library             : x264 core 148
    Encoding settings           : cabac=1 / ref=3 / deblock=1:-1:-1 / analyse=0x3:0 / me=hex / subme=5 / psy=1 / psy_rd=1.00:0.00 / mixed_ref=0 / me_range=16 / chroma_me=1 / trellis=1 / 8x8dct=1 / cqm=0 / deadzone=21,11 / fast_pskip=0 / chroma_qp_offset=0 / threads=8 / lookahead_threads=2 / sliced_threads=0 / nr=0 / decimate=1 / interlaced=0 / bluray_compat=0 / constrained_intra=0 / bframes=2 / b_pyramid=0 / b_adapt=1 / b_bias=0 / direct=1 / weightb=0 / open_gop=0 / weightp=0 / keyint=24 / keyint_min=2 / scenecut=40 / intra_refresh=0 / rc=2pass / mbtree=0 / bitrate=7458 / ratetol=1.0 / qcomp=0.60 / qpmin=0 / qpmax=69 / qpstep=4 / cplxblur=20.0 / qblur=0.5 / ip_ratio=1.40 / pb_ratio=1.30 / aq=1:1.00
    Default                     : Yes
    Forced                      : No
    Color range                 : Limited
    Color primaries             : BT.709
    Transfer characteristics    : BT.709
    Matrix coefficients         : BT.709
    
    Audio #1
    ID                          : 2
    Format                      : DTS XLL
    Format/Info                 : Digital Theater Systems
    Commercial name             : DTS-HD Master Audio
    Codec ID                    : A_DTS
    Duration                    : 24 min 34 s
    Bit rate mode               : Variable
    Bit rate                    : 1 088 kb/s
    Channel(s)                  : 2 channels
    Channel layout              : L R
    Sampling rate               : 48.0 kHz
    Frame rate                  : 93.750 FPS (512 SPF)
    Bit depth                   : 16 bits
    Compression mode            : Lossless
    Stream size                 : 191 MiB (11%)
    Language                    : German
    Default                     : Yes
    Forced                      : No
    
    Audio #2
    ID                          : 3
    Format                      : DTS XLL
    Format/Info                 : Digital Theater Systems
    Commercial name             : DTS-HD Master Audio
    Codec ID                    : A_DTS
    Duration                    : 24 min 34 s
    Bit rate mode               : Variable
    Bit rate                    : 1 177 kb/s
    Channel(s)                  : 2 channels
    Channel layout              : L R
    Sampling rate               : 48.0 kHz
    Frame rate                  : 93.750 FPS (512 SPF)
    Bit depth                   : 16 bits
    Compression mode            : Lossless
    Stream size                 : 207 MiB (12%)
    Language                    : Japanese
    Default                     : No
    Forced                      : No
    
    Text #1
    ID                          : 4
    Format                      : PGS
    Muxing mode                 : zlib
    Codec ID                    : S_HDMV/PGS
    Codec ID/Info               : Picture based subtitle format used on BDs/HD-DVDs
    Duration                    : 23 min 21 s
    Bit rate                    : 1 643 b/s
    Count of elements           : 70
    Stream size                 : 281 KiB (0%)
    Language                    : German
    Default                     : No
    Forced                      : No
    
    Text #2
    ID                          : 5
    Format                      : PGS
    Muxing mode                 : zlib
    Codec ID                    : S_HDMV/PGS
    Codec ID/Info               : Picture based subtitle format used on BDs/HD-DVDs
    Duration                    : 24 min 24 s
    Bit rate                    : 13.2 kb/s
    Count of elements           : 702
    Stream size                 : 2.31 MiB (0%)
    Language                    : German
    Default                     : No
    Forced                      : No
    
    Menu
    00:00:00.000                : en:(01)00:00:00:000
    00:00:39.289                : en:(02)00:00:39:289
    00:02:09.295                : en:(03)00:02:09:295
    00:04:30.937                : en:(04)00:04:30:937
    00:12:25.327                : en:(05)00:12:25:327
    00:22:25.177                : en:(06)00:22:25:177
    00:23:54.891                : en:(07)00:23:54:891
    [​IMG]
    404p [​IMG]
    720p [​IMG]
    1080p [​IMG]
    In diesem Angebot sind bisher nur die Episoden aus Box 5 enthalten.
    Die Episoden aus Box 1-4 werden in den nächsten Wochen nachgereicht.

    Geschützter Bereich
    Registriere dich oder logge dich ein, um den Inhalt sehen zu können