Welcome to our Community
Wanting to join the rest of our members? Feel free to sign up today.
Sign up

haltdiefresse

Otaku Novize
19 Aug. 2014
21
342
0
Gangsta [Ger-Jap-Dub][Ger-Sub][1080p][BluRay] - STARS
xjpq6pby.jpg

Kurzbeschreibung:

In Ergastulum gehört das Verbrechen schon quasi zur Tagesordnung. Korruption, Diebstahl und Prostitution verpesten die Stadt, während die Polizei dabei nur machtlos zusehen kann. In diesem zwielichtigen Örtchen arbeiten der taube Nic und Teilzeit-Gigolo Worick als "Müllmänner" und "Mädchen für alles", die sich um den Abfall der städtischen Bevölkerung kümmern und hinter den Kulissen die dreckige Arbeit erledigen, für die sich alle anderen zu fein sind.

Eines Tages erhalten sie von ihrem Stammkunden, dem örtlichen Cop Chad Adkins, den Auftrag, sich einer neuen Gang zu entledigen, die im Territorium einer einflussreichen Mafia-Familie ihr Unwesen treibt. Eigentlich eine gängige Angelegenheit (samt ebenso gängigem Blutbad) für die beiden, doch wird schon bald deutlich, dass dieser Job ihnen noch ordentlichen Ärger einhandeln soll.

Sprache: Deutsch, Japanisch
Untertitel: Deutsch
Spieldauer: 25 min pro Folge
Größe: ca. 900-1000 MB pro Folge
Episodenanzahl: 12
Format: mkv /x264
Audio:dts,ac3
Auflösung: 1920x1080
Source: BluRay
Group: Stars


Mediainfo:
Format : Matroska
Format version : Version 4
File size : 932 MiB
Duration : 23 min 39 s
Overall bit rate : 5 503 kb/s
Movie name : GANGSTA - E01 - ACT.01 - UNGEZOGENE JUNGS - 1080P - STARS
Encoded date : UTC 2016-06-06 15:00:12
Writing application : mkvmerge v6.1.0 ('Old Devil') built on Mar 2 2013 14:32:37
Writing library : libebml v1.3.0 + libmatroska v1.4.0

Video
ID : 1
Format : AVC
Format/Info : Advanced Video Codec
Format profile : [email protected]
Format settings : CABAC / 4 Ref Frames
Format settings, CABAC : Yes
Format settings, Reference : 4 frames
Codec ID : V_MPEG4/ISO/AVC
Duration : 23 min 39 s
Bit rate : 3 693 kb/s
Width : 1 920 pixels
Height : 1 080 pixels
Display aspect ratio : 16:9
Frame rate mode : Constant
Frame rate : 23.976 (24000/1001) FPS
Color space : YUV
Chroma subsampling : 4:2:0
Bit depth : 8 bits
Scan type : Progressive
Bits/(Pixel*Frame) : 0.074
Stream size : 625 MiB (67%)
Title : GANGSTA - E01 - ACT.01 - UNGEZOGENE JUNGS - 1080P - STARS
Writing library : x264 core 148 r2694 3b70645
Encoding settings : cabac=1 / ref=4 / deblock=1:0:0 / analyse=0x3:0x133 / me=umh / subme=7 / psy=1 / psy_rd=1.00:0.00 / mixed_ref=1 / me_range=16 / chroma_me=1 / trellis=1 / 8x8dct=1 / cqm=0 / deadzone=21,11 / fast_pskip=0 / chroma_qp_offset=-2 / threads=12 / lookahead_threads=2 / sliced_threads=0 / nr=0 / decimate=1 / interlaced=0 / bluray_compat=0 / constrained_intra=0 / bframes=3 / b_pyramid=2 / b_adapt=1 / b_bias=0 / direct=1 / weightb=1 / open_gop=0 / weightp=1 / keyint=250 / keyint_min=23 / scenecut=40 / intra_refresh=0 / rc_lookahead=40 / rc=crf / mbtree=1 / crf=20.0 / qcomp=0.60 / qpmin=0 / qpmax=69 / qpstep=4 / ip_ratio=1.40 / aq=1:1.00
Default : Yes
Forced : Yes

Audio #1
ID : 2
Format : DTS
Format/Info : Digital Theater Systems
Codec ID : A_DTS
Duration : 23 min 39 s
Bit rate mode : Constant
Bit rate : 1 509 kb/s
Channel(s) : 6 channels
Channel layout : C L R Ls Rs LFE
Sampling rate : 48.0 kHz
Frame rate : 93.750 FPS (512 SPF)
Bit depth : 24 bits
Compression mode : Lossy
Stream size : 255 MiB (27%)
Title : GER - AC3
Language : German
Default : Yes
Forced : Yes

Audio #2
ID : 3
Format : AC-3
Format/Info : Audio Coding 3
Commercial name : Dolby Digital
Codec ID : A_AC3
Duration : 23 min 39 s
Bit rate mode : Constant
Bit rate : 192 kb/s
Channel(s) : 2 channels
Channel layout : L R
Sampling rate : 48.0 kHz
Frame rate : 31.250 FPS (1536 SPF)
Compression mode : Lossy
Stream size : 32.5 MiB (3%)
Title : JPN - AC3
Language : Japanese
Service kind : Complete Main
Default : No
Forced : No

Text #1
ID : 4
Format : UTF-8
Codec ID : S_TEXT/utf8mb4
Codec ID/Info : UTF-8 Plain Text
Title : GER - FORCED
Language : German
Default : Yes
Forced : Yes

Text #2
ID : 5
Format : UTF-8
Codec ID : S_TEXT/utf8mb4
Codec ID/Info : UTF-8 Plain Text
Title : GER - SUBS
Language : German
Default : No
Forced : No
[/SIZE]


Hoster: Uploaded.to + DDownload.com + Rapidgator.net

Screenshots:


dszmr4e7.png

Status: ul.to
07AE86322B.png
, ddl.to
204146A868.png
, rg.to
BE3918AD2F.png


To view the content, you need to Sign In or Register.