Welcome to our Community
Wanting to join the rest of our members? Feel free to sign up today.
Sign up

Inuyasha The Final Act [Ger-Jap-Dub][Ger-Sub][AC-3|DTS-HD][720p|1080p][BluRay] - Fuuko

Azugo

H͓̽u͓̽g͓̽o͓̽ ͓̽&͓̽ ͓̽A͓̽z͓̽u͓̽r͓̽a͓̽
Otaku Gott
Uploader
25 März 2020
3.600
36.442
118
Inuyasha
The Final Act


cG7uwko.jpg


AdaL3Vu.png
Viele aufregende und herausfordernde Abenteuer haben Inuyasha und seine Freunde bereits bestehen müssen, doch ihr grösstes und gefährlichstes steht ihnen noch bevor: der finale Kampf gegen ihren Erzfeind Naraku! Der ist im Begriff, alle Splitter des Juwels der Vier Seelen in seine Hände zu bekommen. Sein Plan ist es, das Heilige Juwel zu vervollständigen und komplett zu verunreinigen. Damit wäre er ein vollwertiger Dämon und seine Macht grenzenlos. Um dieses Ziel zu erreichen, hat er zahllosen anderen Dämonen, Menschen und selbst seinen treuesten Untergebenen den Tod gebracht. Wird es Inuyasha, Kagome, Miroku, Sango und Shippo gelingen, Naraku aufzuhalten und ihn endgültig zu vernichten, um den Frieden in der Welt wiederherzustellen?

Hr0yxjI.png

Episoden: 26 / 26
Spieldauer: 24 Min.
Source: Deutsche Original BluRay
Release by: Fuuko
Format: mkv
Sprache: Deutsch [2.0] | Japanisch [2.0]
Untertitel: Deutsch (Forced) | Deutsch (Full)
Audio: AC-3 [640 kb/s] | DTS-HD
Auflösung : 1280x720 | 1920x1080
Größe: 900MB | 1800MB | 2000MB


Code:
Complete name               : Inuyasha.S07E01.German.AC3.DL.720p.BluRay.x264-Fuuko.mkv
Format                      : Matroska
Format version              : Version 4
File size                   : 927 MiB
Duration                    : 24 min 6 s
Overall bit rate            : 5 376 kb/s
Encoded date                : UTC 2021-03-03 12:52:10
Writing application         : mkvmerge v54.0.0 ('F Maj Pixie') 64-bit
Writing library             : libebml v1.4.2 + libmatroska v1.6.3

Video
ID                          : 1
Format                      : AVC
Format/Info                 : Advanced Video Codec
Format profile              : [email protected]
Format settings             : CABAC / 4 Ref Frames
Format settings, CABAC      : Yes
Format settings, Reference  : 4 frames
Codec ID                    : V_MPEG4/ISO/AVC
Duration                    : 24 min 6 s
Bit rate                    : 4 068 kb/s
Width                       : 1 280 pixels
Height                      : 720 pixels
Display aspect ratio        : 16:9
Frame rate mode             : Constant
Frame rate                  : 23.976 (24000/1001) FPS
Color space                 : YUV
Chroma subsampling          : 4:2:0
Bit depth                   : 8 bits
Scan type                   : Progressive
Bits/(Pixel*Frame)          : 0.184
Stream size                 : 701 MiB (76%)
Writing library             : x264 core 157 r2935 545de2f
Encoding settings           : cabac=1 / ref=3 / deblock=1:0:0 / analyse=0x3:0x133 / me=umh / subme=9 / psy=1 / psy_rd=1.00:0.00 / mixed_ref=1 / me_range=32 / chroma_me=1 / trellis=2 / 8x8dct=1 / cqm=0 / deadzone=21,11 / fast_pskip=0 / chroma_qp_offset=-2 / threads=12 / lookahead_threads=1 / sliced_threads=0 / nr=0 / decimate=0 / interlaced=0 / bluray_compat=0 / constrained_intra=0 / bframes=3 / b_pyramid=2 / b_adapt=2 / b_bias=0 / direct=3 / weightb=1 / open_gop=0 / weightp=2 / keyint=250 / keyint_min=24 / scenecut=40 / intra_refresh=0 / rc_lookahead=48 / rc=crf / mbtree=1 / crf=16.0 / qcomp=0.70 / qpmin=0 / qpmax=69 / qpstep=4 / vbv_maxrate=62500 / vbv_bufsize=78125 / crf_max=0.0 / nal_hrd=none / filler=0 / ip_ratio=1.40 / aq=3:1.00
Default                     : Yes
Forced                      : No
Color range                 : Limited
Color primaries             : BT.709
Transfer characteristics    : BT.709
Matrix coefficients         : BT.709

Audio #1
ID                          : 2
Format                      : AC-3
Format/Info                 : Audio Coding 3
Commercial name             : Dolby Digital
Codec ID                    : A_AC3
Duration                    : 24 min 6 s
Bit rate mode               : Constant
Bit rate                    : 640 kb/s
Channel(s)                  : 2 channels
Channel layout              : L R
Sampling rate               : 48.0 kHz
Frame rate                  : 31.250 FPS (1536 SPF)
Compression mode            : Lossy
Delay relative to video     : -5 ms
Stream size                 : 110 MiB (12%)
Language                    : German
Service kind                : Complete Main
Default                     : Yes
Forced                      : No

Audio #2
ID                          : 3
Format                      : AC-3
Format/Info                 : Audio Coding 3
Commercial name             : Dolby Digital
Codec ID                    : A_AC3
Duration                    : 24 min 6 s
Bit rate mode               : Constant
Bit rate                    : 640 kb/s
Channel(s)                  : 2 channels
Channel layout              : L R
Sampling rate               : 48.0 kHz
Frame rate                  : 31.250 FPS (1536 SPF)
Compression mode            : Lossy
Delay relative to video     : -5 ms
Stream size                 : 110 MiB (12%)
Language                    : Japanese
Service kind                : Complete Main
Default                     : No
Forced                      : No

Text #1
ID                          : 4
Format                      : PGS
Muxing mode                 : zlib
Codec ID                    : S_HDMV/PGS
Codec ID/Info               : Picture based subtitle format used on BDs/HD-DVDs
Duration                    : 23 min 51 s
Bit rate                    : 318 b/s
Count of elements           : 10
Stream size                 : 55.7 KiB (0%)
Language                    : German
Default                     : Yes
Forced                      : Yes

Text #2
ID                          : 5
Format                      : PGS
Muxing mode                 : zlib
Codec ID                    : S_HDMV/PGS
Codec ID/Info               : Picture based subtitle format used on BDs/HD-DVDs
Duration                    : 23 min 45 s
Bit rate                    : 46.0 kb/s
Count of elements           : 728
Stream size                 : 7.82 MiB (1%)
Language                    : German
Default                     : No
Forced                      : No

Menu
00:00:00.000                : en:Chapter 01
00:01:36.029                : en:Chapter 02
00:03:28.374                : en:Chapter 03
00:10:08.274                : en:Chapter 04
00:21:54.880                : en:Chapter 05
00:23:31.009                : en:Chapter 06
Code:
Complete name               : Inuyasha.S07E01.German.AC3.DL.1080p.BluRay.x264-Fuuko.mkv
Format                      : Matroska
Format version              : Version 4
File size                   : 1.76 GiB
Duration                    : 24 min 6 s
Overall bit rate            : 10.5 Mb/s
Encoded date                : UTC 2021-03-03 13:35:22
Writing application         : mkvmerge v54.0.0 ('F Maj Pixie') 64-bit
Writing library             : libebml v1.4.2 + libmatroska v1.6.3

Video
ID                          : 1
Format                      : AVC
Format/Info                 : Advanced Video Codec
Format profile              : [email protected]
Format settings             : CABAC / 4 Ref Frames
Format settings, CABAC      : Yes
Format settings, Reference  : 4 frames
Codec ID                    : V_MPEG4/ISO/AVC
Duration                    : 24 min 6 s
Bit rate                    : 9 150 kb/s
Width                       : 1 920 pixels
Height                      : 1 080 pixels
Display aspect ratio        : 16:9
Frame rate mode             : Constant
Frame rate                  : 23.976 (24000/1001) FPS
Color space                 : YUV
Chroma subsampling          : 4:2:0
Bit depth                   : 8 bits
Scan type                   : Progressive
Bits/(Pixel*Frame)          : 0.184
Stream size                 : 1.54 GiB (87%)
Writing library             : x264 core 157 r2935 545de2f
Encoding settings           : cabac=1 / ref=3 / deblock=1:0:0 / analyse=0x3:0x133 / me=umh / subme=9 / psy=1 / psy_rd=1.00:0.00 / mixed_ref=1 / me_range=32 / chroma_me=1 / trellis=2 / 8x8dct=1 / cqm=0 / deadzone=21,11 / fast_pskip=0 / chroma_qp_offset=-2 / threads=12 / lookahead_threads=1 / sliced_threads=0 / nr=0 / decimate=0 / interlaced=0 / bluray_compat=0 / constrained_intra=0 / bframes=3 / b_pyramid=2 / b_adapt=2 / b_bias=0 / direct=3 / weightb=1 / open_gop=0 / weightp=2 / keyint=250 / keyint_min=24 / scenecut=40 / intra_refresh=0 / rc_lookahead=48 / rc=crf / mbtree=1 / crf=16.0 / qcomp=0.70 / qpmin=0 / qpmax=69 / qpstep=4 / vbv_maxrate=62500 / vbv_bufsize=78125 / crf_max=0.0 / nal_hrd=none / filler=0 / ip_ratio=1.40 / aq=3:1.00
Default                     : Yes
Forced                      : No
Color range                 : Limited
Color primaries             : BT.709
Transfer characteristics    : BT.709
Matrix coefficients         : BT.709

Audio #1
ID                          : 2
Format                      : AC-3
Format/Info                 : Audio Coding 3
Commercial name             : Dolby Digital
Codec ID                    : A_AC3
Duration                    : 24 min 6 s
Bit rate mode               : Constant
Bit rate                    : 640 kb/s
Channel(s)                  : 2 channels
Channel layout              : L R
Sampling rate               : 48.0 kHz
Frame rate                  : 31.250 FPS (1536 SPF)
Compression mode            : Lossy
Delay relative to video     : -5 ms
Stream size                 : 110 MiB (6%)
Language                    : German
Service kind                : Complete Main
Default                     : Yes
Forced                      : No

Audio #2
ID                          : 3
Format                      : AC-3
Format/Info                 : Audio Coding 3
Commercial name             : Dolby Digital
Codec ID                    : A_AC3
Duration                    : 24 min 6 s
Bit rate mode               : Constant
Bit rate                    : 640 kb/s
Channel(s)                  : 2 channels
Channel layout              : L R
Sampling rate               : 48.0 kHz
Frame rate                  : 31.250 FPS (1536 SPF)
Compression mode            : Lossy
Delay relative to video     : -5 ms
Stream size                 : 110 MiB (6%)
Language                    : Japanese
Service kind                : Complete Main
Default                     : No
Forced                      : No

Text #1
ID                          : 4
Format                      : PGS
Muxing mode                 : zlib
Codec ID                    : S_HDMV/PGS
Codec ID/Info               : Picture based subtitle format used on BDs/HD-DVDs
Duration                    : 23 min 51 s
Bit rate                    : 318 b/s
Count of elements           : 10
Stream size                 : 55.7 KiB (0%)
Language                    : German
Default                     : Yes
Forced                      : Yes

Text #2
ID                          : 5
Format                      : PGS
Muxing mode                 : zlib
Codec ID                    : S_HDMV/PGS
Codec ID/Info               : Picture based subtitle format used on BDs/HD-DVDs
Duration                    : 23 min 45 s
Bit rate                    : 46.0 kb/s
Count of elements           : 728
Stream size                 : 7.82 MiB (0%)
Language                    : German
Default                     : No
Forced                      : No

Menu
00:00:00.000                : en:Chapter 01
00:01:36.029                : en:Chapter 02
00:03:28.374                : en:Chapter 03
00:10:08.274                : en:Chapter 04
00:21:54.880                : en:Chapter 05
00:23:31.009                : en:Chapter 06
Code:
Complete name               : Inuyasha.S07E01.German.DTS.DL.1080p.BluRay.x264-Fuuko.mkv
Format                      : Matroska
Format version              : Version 4
File size                   : 1.92 GiB
Duration                    : 24 min 6 s
Overall bit rate mode       : Variable
Overall bit rate            : 11.4 Mb/s
Encoded date                : UTC 2021-03-03 14:26:30
Writing application         : mkvmerge v54.0.0 ('F Maj Pixie') 64-bit
Writing library             : libebml v1.4.2 + libmatroska v1.6.3

Video
ID                          : 1
Format                      : AVC
Format/Info                 : Advanced Video Codec
Format profile              : [email protected]
Format settings             : CABAC / 4 Ref Frames
Format settings, CABAC      : Yes
Format settings, Reference  : 4 frames
Codec ID                    : V_MPEG4/ISO/AVC
Duration                    : 24 min 6 s
Bit rate                    : 9 150 kb/s
Width                       : 1 920 pixels
Height                      : 1 080 pixels
Display aspect ratio        : 16:9
Frame rate mode             : Constant
Frame rate                  : 23.976 (24000/1001) FPS
Color space                 : YUV
Chroma subsampling          : 4:2:0
Bit depth                   : 8 bits
Scan type                   : Progressive
Bits/(Pixel*Frame)          : 0.184
Stream size                 : 1.54 GiB (80%)
Writing library             : x264 core 157 r2935 545de2f
Encoding settings           : cabac=1 / ref=3 / deblock=1:0:0 / analyse=0x3:0x133 / me=umh / subme=9 / psy=1 / psy_rd=1.00:0.00 / mixed_ref=1 / me_range=32 / chroma_me=1 / trellis=2 / 8x8dct=1 / cqm=0 / deadzone=21,11 / fast_pskip=0 / chroma_qp_offset=-2 / threads=12 / lookahead_threads=1 / sliced_threads=0 / nr=0 / decimate=0 / interlaced=0 / bluray_compat=0 / constrained_intra=0 / bframes=3 / b_pyramid=2 / b_adapt=2 / b_bias=0 / direct=3 / weightb=1 / open_gop=0 / weightp=2 / keyint=250 / keyint_min=24 / scenecut=40 / intra_refresh=0 / rc_lookahead=48 / rc=crf / mbtree=1 / crf=16.0 / qcomp=0.70 / qpmin=0 / qpmax=69 / qpstep=4 / vbv_maxrate=62500 / vbv_bufsize=78125 / crf_max=0.0 / nal_hrd=none / filler=0 / ip_ratio=1.40 / aq=3:1.00
Default                     : Yes
Forced                      : No
Color range                 : Limited
Color primaries             : BT.709
Transfer characteristics    : BT.709
Matrix coefficients         : BT.709

Audio #1
ID                          : 2
Format                      : DTS XLL
Format/Info                 : Digital Theater Systems
Commercial name             : DTS-HD Master Audio
Codec ID                    : A_DTS
Duration                    : 24 min 6 s
Bit rate mode               : Variable
Bit rate                    : 1 086 kb/s
Channel(s)                  : 2 channels
Channel layout              : L R
Sampling rate               : 48.0 kHz
Frame rate                  : 93.750 FPS (512 SPF)
Bit depth                   : 16 bits
Compression mode            : Lossless
Delay relative to video     : -5 ms
Stream size                 : 187 MiB (10%)
Language                    : German
Default                     : Yes
Forced                      : No

Audio #2
ID                          : 3
Format                      : DTS XLL
Format/Info                 : Digital Theater Systems
Commercial name             : DTS-HD Master Audio
Codec ID                    : A_DTS
Duration                    : 24 min 6 s
Bit rate mode               : Variable
Bit rate                    : 1 117 kb/s
Channel(s)                  : 2 channels
Channel layout              : L R
Sampling rate               : 48.0 kHz
Frame rate                  : 93.750 FPS (512 SPF)
Bit depth                   : 16 bits
Compression mode            : Lossless
Delay relative to video     : -5 ms
Stream size                 : 193 MiB (10%)
Language                    : Japanese
Default                     : No
Forced                      : No

Text #1
ID                          : 4
Format                      : PGS
Muxing mode                 : zlib
Codec ID                    : S_HDMV/PGS
Codec ID/Info               : Picture based subtitle format used on BDs/HD-DVDs
Duration                    : 23 min 51 s
Bit rate                    : 318 b/s
Count of elements           : 10
Stream size                 : 55.7 KiB (0%)
Language                    : German
Default                     : Yes
Forced                      : Yes

Text #2
ID                          : 5
Format                      : PGS
Muxing mode                 : zlib
Codec ID                    : S_HDMV/PGS
Codec ID/Info               : Picture based subtitle format used on BDs/HD-DVDs
Duration                    : 23 min 45 s
Bit rate                    : 46.0 kb/s
Count of elements           : 728
Stream size                 : 7.82 MiB (0%)
Language                    : German
Default                     : No
Forced                      : No

Menu
00:00:00.000                : en:Chapter 01
00:01:36.029                : en:Chapter 02
00:03:28.374                : en:Chapter 03
00:10:08.274                : en:Chapter 04
00:21:54.880                : en:Chapter 05
00:23:31.009                : en:Chapter 06

Status:rapidgator
E0D41C335A.png
ddownload
7FBDFC971B.png

To view the content, you need to Sign In or Register.