• Angebote, die sich im Download-Archiv befinden, können möglicherweise offline sein. Bitte wende Dich an den Uploader oder an andere Uploader, um einen Reupload zu erbitten.
Welcome to our Community
Wanting to join the rest of our members? Feel free to sign up today.
Sign up

Jujutsu Kaisen 0 [Ger-Eng-Jap-Dub][Ger-Eng-Sub][OPUS][1080p][AV1][10bit][BluRay] - Kleinmike

Kleinmike

Uploader
Otaku König
21 März 2021
284
4.596
93
Jujutsu Kaisen 0
劇場版 呪術廻戦 0 | Gekijouban Jujutsu Kaisen 0

16092_300.webp


Beschreibung:
Sechs Jahre sind vergangen, seitdem Yuta Okkotsus beste Freundin Rika Orimoto bei einem Verkehrsunfall gestorben und als Sonderfluch zurückgekehrt ist. Als Kinder haben die beiden sich versprochen, für immer zusammenzubleiben – und Rika hat ihr Wort sogar nach ihrem Ableben gehalten. Selbst als Fluch ist sie immer an seiner Seite und fungiert als seine Beschützerin. Allerdings geht Rikas Liebe das ein oder andere Mal zu weit und endet mit dem Tod von Yutas Mitmenschen. Nun schalten sich die Jujuzisten – Exorzisten, deren Aufgabe es ist, Flüche auszutreiben – ein. Satoru Gojo, ein Jujuzist des Spezialranges, nimmt sich Yuta an und bringt ihn an die Städtische Jujutsu-Akademie Tokyo, wo er lernen soll, Rika zu kontrollieren. Mit Maki Zen’in, Toge Inumaki und Panda als neue Mitschüler findet er gute Freunde und Kameraden; so kommt er bald aus sich heraus. Doch auch das »Böse« in Form von Suguru Geto hat ein Auge auf ihn und Rika geworfen …
Quelle: anisearch

Laufzeit: 1h 44min
Größe: ~3680MB
Sprache: Japanisch | Deutsch | Englisch
Untertitel: Deutsch | Englisch
Jahr: 2021
Genres: Actiondrama, Fantasy, Geistergeschichten
Auflösung: 1920x800
Format: MKV
Videocodec: AV1
Farbtiefe: 10bit
Audiocodec: Opus
Publisher: Crunchyroll
Hoster: DDownload | Uploaded

Mediainfo:
Code:
Format                                   : Matroska
Format version                           : Version 4
File size                                : 3.68 GiB
Duration                                 : 1 h 44 min
Overall bit rate mode                    : Variable
Overall bit rate                         : 5 021 kb/s
Movie name                               : 劇場版 呪術廻戦 0
Encoded date                             : UTC 2022-09-24 16:56:33
Writing application                      : mkvmerge v59.0.0 ('Shining Star') 64-bit
Writing library                          : libebml v1.4.2 + libmatroska v1.6.4
Released by                              : Kleinmike
Version                                  : 1.3

Video
ID                                       : 1
Format                                   : AV1
Format/Info                              : AOMedia Video 1
Format profile                           : [email protected]
Codec ID                                 : V_AV1
Duration                                 : 1 h 44 min
Bit rate                                 : 4 315 kb/s
Width                                    : 1 920 pixels
Height                                   : 800 pixels
Display aspect ratio                     : 2.40:1
Frame rate mode                          : Constant
Frame rate                               : 23.976 (24000/1001) FPS
Color space                              : YUV
Chroma subsampling                       : 4:2:0
Bit depth                                : 10 bits
Bits/(Pixel*Frame)                       : 0.117
Stream size                              : 3.16 GiB (86%)
Default                                  : Yes
Forced                                   : No
Color range                              : Limited
Color primaries                          : BT.709
Transfer characteristics                 : BT.709
Matrix coefficients                      : BT.709

Audio #1
ID                                       : 2
Format                                   : Vorbis
Format settings, Floor                   : 1 / 8710
Codec ID                                 : A_VORBIS
Duration                                 : 1 h 44 min
Bit rate mode                            : Variable
Bit rate                                 : 640 kb/s
Channel(s)                               : 6 channels
Sampling rate                            : 48.0 kHz
Frame rate                               : 79.885 FPS (601 SPF)
Compression mode                         : Lossy
Stream size                              : 340 MiB (9%)
Title                                    : Surround 5.1
Writing library                          : libVorbis (Reducing Environment) (20200704 (Reducing Environment))
Language                                 : Japanese
Default                                  : No
Forced                                   : No

Audio #2
ID                                       : 3
Format                                   : Opus
Codec ID                                 : A_OPUS
Duration                                 : 1 h 44 min
Bit rate                                 : 125 kb/s
Channel(s)                               : 2 channels
Channel layout                           : L R
Sampling rate                            : 48.0 kHz
Frame rate                               : 50.000 FPS (960 SPF)
Bit depth                                : 32 bits
Compression mode                         : Lossy
Delay relative to video                  : 1 s 0 ms
Stream size                              : 93.5 MiB (2%)
Language                                 : German
Default                                  : Yes
Forced                                   : No

Audio #3
ID                                       : 4
Format                                   : Opus
Codec ID                                 : A_OPUS
Duration                                 : 1 h 44 min
Bit rate                                 : 123 kb/s
Channel(s)                               : 2 channels
Channel layout                           : L R
Sampling rate                            : 48.0 kHz
Frame rate                               : 50.000 FPS (960 SPF)
Bit depth                                : 32 bits
Compression mode                         : Lossy
Delay relative to video                  : 1 s 0 ms
Stream size                              : 92.7 MiB (2%)
Language                                 : English
Default                                  : No
Forced                                   : No

Text #1
ID                                       : 5
Format                                   : ASS
Codec ID                                 : S_TEXT/ASS
Codec ID/Info                            : Advanced Sub Station Alpha
Duration                                 : 1 h 34 min
Bit rate                                 : 16 b/s
Count of elements                        : 77
Compression mode                         : Lossless
Stream size                              : 11.1 KiB (0%)
Title                                    : German Forced
Language                                 : German
Default                                  : Yes
Forced                                   : No

Text #2
ID                                       : 6
Format                                   : ASS
Codec ID                                 : S_TEXT/ASS
Codec ID/Info                            : Advanced Sub Station Alpha
Duration                                 : 1 h 44 min
Bit rate                                 : 133 b/s
Count of elements                        : 1464
Compression mode                         : Lossless
Stream size                              : 102 KiB (0%)
Title                                    : German Full
Language                                 : German
Default                                  : No
Forced                                   : No

Text #3
ID                                       : 7
Format                                   : ASS
Codec ID                                 : S_TEXT/ASS
Codec ID/Info                            : Advanced Sub Station Alpha
Duration                                 : 1 h 35 min
Bit rate                                 : 8 b/s
Count of elements                        : 45
Compression mode                         : Lossless
Stream size                              : 5.63 KiB (0%)
Title                                    : English Forced
Language                                 : English
Default                                  : No
Forced                                   : No

Text #4
ID                                       : 8
Format                                   : ASS
Codec ID                                 : S_TEXT/ASS
Codec ID/Info                            : Advanced Sub Station Alpha
Duration                                 : 1 h 44 min
Bit rate                                 : 119 b/s
Count of elements                        : 1433
Compression mode                         : Lossless
Stream size                              : 91.5 KiB (0%)
Title                                    : English Full
Language                                 : English
Default                                  : No
Forced                                   : No

Menu
00:00:00.000                             : :Chapter 01
00:00:27.027                             : :Chapter 02
00:06:25.760                             : :Chapter 03
00:26:05.605                             : :Chapter 04
00:46:32.539                             : :Chapter 05
01:06:21.560                             : :Chapter 06
01:35:46.073                             : :Chapter 07
01:43:35.542                             : :Chapter 08
01:44:56.290                             : :Chapter 09

Status:
1080p:
6F8F5481AC.png


To view the content, you need to Sign In or Register.
 

Kleinmike

Uploader
Otaku König
21 März 2021
284
4.596
93
Anmerkung:
Videostream und japanische Audio stammen aus der japanischen BluRay.
Deutsche und englische Audio sowie Untertitel stammen vom Crunchyroll Release.
Audio und Untertitel sind bereits von mir gesynced worden.

Viel Spaß <3
 
  • Love
Reaktionen: reloxx