Welcome to our Community
Wanting to join the rest of our members? Feel free to sign up today.
Sign up

My Teen Romantic Comedy SNAFU Staffel 1 [Ger-Jap-Dub][Ger-Sub][qAAC][1080p][10bit][x265][BluRay] - PHM

woahAnimePog

Otaku Amateur
18 Okt. 2020
1
11
3
26
My Teen Romantic Comedy SNAFU
Yahari Ore no Seishun Lovecome wa Machigatte Iru.
やはり俺の青春ラブコメはまちがっている。
KsDGIgZ.jpg



Beschreibung:
Hachiman Hikigaya ist bereits im zweiten Jahr der Oberschule, hat allerdings als Mustereinzelgänger und Außenseiter weder Freunde noch sozialen Anschluss gefunden. Doch das soll sich jetzt ändern, meint seine Klassenlehrerin Shizuka Hiratsuka, und zwingt ihn mehr oder weniger, einem Club beizutreten. Hierbei handelt es sich um den »Service Club« und Hachiman staunt nicht schlecht, als er im Clubraum nur eine Person vorfindet: die Präsidentin und auch das einzige Mitglied besagten Clubs, Yukino Yukinoshita. Schnell wird klar, dass auch sie trotz ihrer Schönheit und Intelligenz nicht sonderlich gesellig ist, und fortan müssen die beiden entgegen ihrer unterschiedlichen Methoden und Ideale zusammenarbeiten und anderen im Namen des Service Clubs helfen, um vielleicht irgendwann einmal sich selbst helfen zu können.
by anisearch.de

Episoden: 13/13
Größe: ~900 MB pro Episode
Releaser: PHM
Art: Lizenzrelease
Sprache: Deutsch | Japanisch
Untertitel: Deutsch
Jahr: 2013
Genres: Romantische Komödie, Erwachsenwerden, Gegenwart, Klubs, Schule
Auflösung: 1920x1080
Format: MKV
Quelle: BluRay
Videocodec: x265
Farbtiefe: 10bit
Audiocodec: qAAC
Publisher: Brain's Base | Animoon Publishing GmbH
Hoster: Rapidgator


Mediainfo:


General
Unique ID : 307980637893535352648891080070324565863 (0xE7B2E9CCC9AEC7A952CD02D622403767)
Complete name : My.Teen.Romantic.Comedy.SNAFU.S01E01.German.DL.AAC.1080p.BluRay.10bit.x265-PHM.mkv
Format : Matroska
Format version : Version 4
File size : 811 MiB
Duration : 24 min 14 s
Overall bit rate : 4 675 kb/s
Encoded date : UTC 2022-08-13 10:17:57
Writing application : mkvmerge v69.0.0 ('Day And Age') 64-bit
Writing library : libebml v1.4.2 + libmatroska v1.6.4

Video
ID : 1
Format : HEVC
Format/Info : High Efficiency Video Coding
Format profile : Main [email protected]@Main
Codec ID : V_MPEGH/ISO/HEVC
Duration : 24 min 9 s
Bit rate : 4 141 kb/s
Width : 1 920 pixels
Height : 1 080 pixels
Display aspect ratio : 16:9
Frame rate mode : Constant
Frame rate : 23.976 (24000/1001) FPS
Color space : YUV
Chroma subsampling : 4:2:0
Bit depth : 10 bits
Bits/(Pixel*Frame) : 0.083
Stream size : 716 MiB (88%)
Writing library : x265 3.5+37+12-4e46995bc:[Windows][MSVC 1931][64 bit] 10bit
Encoding settings : cpuid=1111039 / frame-threads=4 / numa-pools=16 / wpp / no-pmode / no-pme / no-psnr / no-ssim / log-level=2 / input-csp=1 / input-res=1920x1080 / interlace=0 / total-frames=34760 / level-idc=0 / high-tier=1 / uhd-bd=0 / ref=5 / no-allow-non-conformance / repeat-headers / annexb / aud / no-eob / no-eos / no-hrd / info / hash=0 / no-temporal-layers / no-open-gop / min-keyint=23 / keyint=240 / gop-lookahead=0 / bframes=8 / b-adapt=2 / b-pyramid / bframe-bias=0 / rc-lookahead=40 / lookahead-slices=0 / scenecut=40 / no-hist-scenecut / radl=0 / no-splice / no-intra-refresh / ctu=64 / min-cu-size=8 / rect / amp / max-tu-size=32 / tu-inter-depth=3 / tu-intra-depth=3 / limit-tu=4 / rdoq-level=2 / dynamic-rd=0.00 / no-ssim-rd / signhide / no-tskip / nr-intra=0 / nr-inter=0 / no-constrained-intra / no-strong-intra-smoothing / max-merge=4 / limit-refs=1 / limit-modes / me=3 / subme=4 / merange=57 / temporal-mvp / no-frame-dup / no-hme / weightp / weightb / no-analyze-src-pics / deblock=-2:-2 / no-sao / no-sao-non-deblock / rd=4 / selective-sao=0 / no-early-skip / rskip / no-fast-intra / no-tskip-fast / no-cu-lossless / b-intra / no-splitrd-skip / rdpenalty=0 / psy-rd=1.70 / psy-rdoq=1.00 / no-rd-refine / no-lossless / cbqpoffs=-3 / crqpoffs=0 / rc=crf / crf=13.0 / qcomp=0.60 / qpstep=4 / stats-write=0 / stats-read=0 / ipratio=1.40 / pbratio=1.30 / aq-mode=5 / aq-strength=0.80 / aq-bias-strength=1.00 / cutree / zone-count=0 / no-strict-cbr / qg-size=32 / no-rc-grain / qpmax=69 / qpmin=0 / no-const-vbv / sar=0 / overscan=0 / videoformat=5 / range=0 / colorprim=1 / transfer=1 / colormatrix=1 / chromaloc=0 / display-window=0 / cll=0,0 / min-luma=0 / max-luma=1023 / log2-max-poc-lsb=8 / vui-timing-info / vui-hrd-info / slices=1 / no-opt-qp-pps / no-opt-ref-list-length-pps / no-multi-pass-opt-rps / scenecut-bias=0.05 / hist-threshold=0.03 / no-opt-cu-delta-qp / no-aq-motion / no-hdr10 / no-hdr10-opt / no-dhdr10-opt / no-idr-recovery-sei / analysis-reuse-level=0 / analysis-save-reuse-level=0 / analysis-load-reuse-level=0 / scale-factor=0 / refine-intra=0 / refine-inter=0 / refine-mv=1 / refine-ctu-distortion=0 / no-limit-sao / ctu-info=0 / no-lowpass-dct / refine-analysis-type=0 / copy-pic=1 / max-ausize-factor=1.0 / no-dynamic-refine / no-single-sei / no-hevc-aq / no-svt / no-field / qp-adaptation-range=1.00 / scenecut-aware-qp=0conformance-window-offsets / right=0 / bottom=0 / decoder-max-rate=0 / no-vbv-live-multi-pass
Default : Yes
Forced : No
Color range : Limited
Color primaries : BT.709
Transfer characteristics : BT.709
Matrix coefficients : BT.709

Audio #1
ID : 2
Format : AAC LC
Format/Info : Advanced Audio Codec Low Complexity
Codec ID : A_AAC-2
Duration : 24 min 14 s
Bit rate : 242 kb/s
Channel(s) : 2 channels
Channel layout : L R
Sampling rate : 48.0 kHz
Frame rate : 46.875 FPS (1024 SPF)
Compression mode : Lossy
Delay relative to video : 20 ms
Stream size : 42.0 MiB (5%)
Title : German
Language : German
Default : Yes
Forced : No

Audio #2
ID : 3
Format : AAC LC
Format/Info : Advanced Audio Codec Low Complexity
Codec ID : A_AAC-2
Duration : 24 min 14 s
Bit rate : 252 kb/s
Channel(s) : 2 channels
Channel layout : L R
Sampling rate : 48.0 kHz
Frame rate : 46.875 FPS (1024 SPF)
Compression mode : Lossy
Delay relative to video : 20 ms
Stream size : 43.8 MiB (5%)
Title : Japanese
Language : Japanese
Default : No
Forced : No

Text
ID : 4
Format : PGS
Codec ID : S_HDMV/PGS
Codec ID/Info : Picture based subtitle format used on BDs/HD-DVDs
Duration : 23 min 53 s
Bit rate : 50.9 kb/s
Frame rate : 0.603 FPS
Count of elements : 864
Stream size : 8.69 MiB (1%)
Title : German
Language : German
Default : No
Forced : No

Menu
00:00:00.000 : en:Chapter 01
00:01:06.983 : en:Chapter 02
00:02:36.531 : en:Chapter 03
00:10:58.908 : en:Chapter 04
00:22:10.704 : en:Chapter 05
00:23:39.543 : en:Chapter 06


Download:
To view the content, you need to Sign In or Register.






Ich hoffe das passt von der Formatierung her und alle wichtigen Infos sind dabei. Ist mein erster Post :)