Welcome to our Community
Wanting to join the rest of our members? Feel free to sign up today.
Sign up

My Teen Romantic Comedy: SNAFU TOO! [Laufend][Ger-Jap-Dub][Ger-Sub][1080p][BluRay] - ABJ

Kleinmike

Uploader
Otaku König
21 März 2021
285
4.735
93
My Teen Romantic Comedy SNAFU: TOO!
やはり俺の青春ラブコメはまちがっている。 続

9606.webp


Beschreibung:
My Teen Romantic Comedy SNAFU: TOO! setzt quasi nahtlos an die Geschichte aus der ersten Staffel an und führt diese fort. Im Zentrum der Geschichte stehen Hachiman Hikigaya, Yukino Yukinoshita und Yui Yuigahama, die gemeinsam den Service Club ihrer Schule betreiben. Bei Problemen können sich Schüler an den Club wenden und um Hilfe bitten. Es handelt sich dabei meist um Situationen aus den Bereichen soziales Zusammenleben, Organisation und ähnlichem. Dass die drei Clubmitglieder dabei auch immer wieder mit ihren eigenen Unzulänglichkeiten und Schwächen konfrontiert werden, führt zu weiteren Entwicklungen.
Quelle: anisearch

Folgen: 13/13
Größe pro Folge: ~1700 MB
Sprache: Deutsch | Japanisch
Untertitel: Deutsch Softsub
Jahr: 2021
Genres: Romantische Komödie, Komödie, Romanze
Auflösung: 1920x1080
Format: MKV
Videocodec: H264
Farbtiefe: 8bit
Audiocodec: DTS-HD
Publisher: AniMoon Publishing GmbH
Releasergruppe: Anime Bluray Junkies
Hoster: DDownload | Uploaded

Mediainfo:
Code:
Format                                   : Matroska
Format version                           : Version 4
File size                                : 1.72 GiB
Duration                                 : 24 min 9 s
Overall bit rate mode                    : Variable
Overall bit rate                         : 10.2 Mb/s
Encoded date                             : UTC 2021-07-28 13:28:49
Writing application                      : mkvmerge v59.0.0 ('Shining Star') 64-bit
Writing library                          : libebml v1.4.2 + libmatroska v1.6.4 / Lavf58.42.101
VERSION                                  : 1.11

Video
ID                                       : 1
Format                                   : AVC
Format/Info                              : Advanced Video Codec
Format profile                           : High@L5
Format settings                          : CABAC / 13 Ref Frames
Format settings, CABAC                   : Yes
Format settings, Reference frames        : 13 frames
Codec ID                                 : V_MPEG4/ISO/AVC
Duration                                 : 24 min 9 s
Bit rate                                 : 7 007 kb/s
Width                                    : 1 920 pixels
Height                                   : 1 080 pixels
Display aspect ratio                     : 16:9
Frame rate mode                          : Constant
Frame rate                               : 23.976 (24000/1001) FPS
Color space                              : YUV
Chroma subsampling                       : 4:2:0
Bit depth                                : 8 bits
Scan type                                : Progressive
Bits/(Pixel*Frame)                       : 0.141
Stream size                              : 1.18 GiB (69%)
Default                                  : Yes
Forced                                   : No
Color range                              : Limited
Color primaries                          : BT.709
Transfer characteristics                 : BT.709
Matrix coefficients                      : BT.709

Audio #1
ID                                       : 2
Format                                   : DTS XLL
Format/Info                              : Digital Theater Systems
Commercial name                          : DTS-HD Master Audio
Codec ID                                 : A_DTS
Duration                                 : 24 min 9 s
Bit rate mode                            : Variable
Bit rate                                 : 1 568 kb/s
Channel(s)                               : 2 channels
Channel layout                           : L R
Sampling rate                            : 48.0 kHz
Frame rate                               : 93.750 FPS (512 SPF)
Bit depth                                : 16 bits
Compression mode                         : Lossless
Stream size                              : 271 MiB (15%)
Title                                    : Stereo
Language                                 : German
Default                                  : Yes
Forced                                   : No

Audio #2
ID                                       : 3
Format                                   : DTS XLL
Format/Info                              : Digital Theater Systems
Commercial name                          : DTS-HD Master Audio
Codec ID                                 : A_DTS
Duration                                 : 24 min 9 s
Bit rate mode                            : Variable
Bit rate                                 : 1 571 kb/s
Channel(s)                               : 2 channels
Channel layout                           : L R
Sampling rate                            : 48.0 kHz
Frame rate                               : 93.750 FPS (512 SPF)
Bit depth                                : 16 bits
Compression mode                         : Lossless
Stream size                              : 271 MiB (15%)
Title                                    : Stereo
Language                                 : Japanese
Default                                  : No
Forced                                   : No

Text
ID                                       : 4
Format                                   : PGS
Muxing mode                              : zlib
Codec ID                                 : S_HDMV/PGS
Codec ID/Info                            : Picture based subtitle format used on BDs/HD-DVDs
Duration                                 : 24 min 7 s
Bit rate                                 : 46.8 kb/s
Count of elements                        : 553
Stream size                              : 8.08 MiB (0%)
Language                                 : German
Default                                  : No
Forced                                   : No

Menu
00:00:00.000                             : :Chapter 01
00:01:06.441                             : :Chapter 02
00:02:36.406                             : :Chapter 03
00:13:20.382                             : :Chapter 04
00:22:09.244                             : :Chapter 05
00:23:39.418                             : :Chapter 06

Status:
1080p:
B69C808728.png

To view the content, you need to Sign In or Register.

 
Zuletzt bearbeitet: