Welcome to our Community
Wanting to join the rest of our members? Feel free to sign up today.
Sign up

OVA Planetarian: Chiisana Hoshi no Yume [Jap-Dub][720p][WebRip] - Miki und Mio

Stoneman

Uploader
Otaku König
1 Juni 2013
226
512
93
Sachsen
Planetarian: Chiisana Hoshi no Yume
planetarian ~ちいさなほしのゆめ~
Planetarian




jnoap5qk.jpg



Kurzbeschreibung:
AniSearch.com schrieb:
30 Jahre nachdem in der nahen Zukunft ein heftiger Krieg ausbrach, wurde die Zivilisation so gut wie ausgelöscht und die Städte bestehen nur noch aus verlassenen Ruinen. Die Menschen, welche den Krieg überlebt haben, leben zurückgezogen, denn autonome Kriegsmaschinen sorgen dafür, dass niemand einen Fuß in feindliches Gebiet setzt und sollte es doch jemand tun, wird dieser umgehend angegriffen. Ein junger Soldat, traut sich in eine dieser verlassenen Städte und findet, nach einem Angriff Unterschlupf in einem heruntergekommenen Gebäude, das sich als Planetarium herausstellt. Dort wird er auch gleich von einem Andoriden-Mädchen namens Yumemi Hoshino begrüßt, die offenbar hier zurückgelassen wurde. Yumemi freut sich sehr darüber, nach vielen Jahren endlich wieder einen Kunden zu haben und möchte diesem den wunderschönen Sternenhimmel zeigen, doch ihr Projektor funktioniert nicht mehr …




Spieldauer: 19min
Genre: Sentimentales Drama
Nebengenres: Drama, Scifi
Jahr: 2016
Sprache: Japanisch
Größe pro Folge:238mb
Episodenanzahl: 5/5
Format: MP4
Auflösung: 720p (16:9)
Videocodec: H264 (AVC)
Audiocodec: AAC
Releasegruppe: Miki und Mio
Hoster: DDL, Uploaded
C83BF496E6.png




Code:
[color=red]Format                                   : MPEG-4
Format profile                           : Base Media
Codec ID                                 : isom
File size                                : 239 MiB
Duration                                 : 18mn 5s
Overall bit rate                         : 1 846 Kbps
Writing application                      : Lavf57.51.100

Video
ID                                       : 1
Format                                   : AVC
Format/Info                              : Advanced Video Codec
Format profile                           : High 4:4:4 [email protected]
Format settings, CABAC                   : Yes
Format settings, ReFrames                : 4 frames
Codec ID                                 : avc1
Codec ID/Info                            : Advanced Video Coding
Duration                                 : 18mn 5s
Bit rate                                 : 1 643 Kbps
Width                                    : 1 280 pixels
Height                                   : 720 pixels
Display aspect ratio                     : 16:9
Frame rate mode                          : Constant
Frame rate                               : 23.976 fps
Color space                              : YUV
Chroma subsampling                       : 4:4:4
Bit depth                                : 8 bits
Scan type                                : Progressive
Bits/(Pixel*Frame)                       : 0.074
Stream size                              : 213 MiB (89%)
Writing library                          : x264 core 148 r2705 3f5ed56
Encoding settings                        : cabac=1 / ref=3 / deblock=1:0:0 / analyse=0x3:0x113 / me=hex / subme=7 / psy=1 / psy_rd=1.00:0.00 / mixed_ref=1 / me_range=16 / chroma_me=1 / trellis=1 / 8x8dct=1 / cqm=0 / deadzone=21,11 / fast_pskip=1 / chroma_qp_offset=4 / threads=6 / lookahead_threads=1 / sliced_threads=0 / nr=0 / decimate=1 / interlaced=0 / bluray_compat=0 / constrained_intra=0 / bframes=3 / b_pyramid=2 / b_adapt=1 / b_bias=0 / direct=1 / weightb=1 / open_gop=0 / weightp=2 / keyint=250 / keyint_min=23 / scenecut=40 / intra_refresh=0 / rc_lookahead=40 / rc=crf / mbtree=1 / crf=18.0 / qcomp=0.60 / qpmin=0 / qpmax=69 / qpstep=4 / ip_ratio=1.40 / aq=1:1.00
Language                                 : Japanese

Audio
ID                                       : 2
Format                                   : AAC
Format/Info                              : Advanced Audio Codec
Format profile                           : LC
Codec ID                                 : 40
Duration                                 : 18mn 5s
Bit rate mode                            : Constant
Bit rate                                 : 196 Kbps
Channel(s)                               : 2 channels
Channel positions                        : Front: L R
Sampling rate                            : 48.0 KHz
Compression mode                         : Lossy
Stream size                              : 25.4 MiB (11%)
Language                                 : Japanese

[/color]






To view the content, you need to Sign In or Register.

AnimeReleaseManager v3
 
Zuletzt bearbeitet: