Welcome to our Community
Wanting to join the rest of our members? Feel free to sign up today.
Sign up

Project BLUE Chikyu SOS [Ger-Jap-Dub][Ger-Sub][400p][DVDRip] – iND

Azugo

H͓̽u͓̽g͓̽o͓̽ ͓̽&͓̽ ͓̽A͓̽z͓̽u͓̽r͓̽a͓̽
Otaku Gott
Uploader
25 März 2020
3.567
35.356
118

Project BLUE Chikyu SOS
Project Blue Earth SOS



vp5j9bo4.jpg



Kurzbeschreibung:
AniSearch.com schrieb:
Covertext:
Eine Parallelversion der Erde unserer Zeit. Die Wissenschaft hat eine neue Antriebstechnologie hervorgebracht, die das Leben der Menschen und die Art zu reisen für immer verändern soll: den "G-Reaktions-Antrieb". Tragischerweise wird aber das erste Kampfflugzeug dieses Typs bei seinem Testflug von einem mysteriösen Licht in den Farben des Regenbogens umhüllt und verschwindet!

Fünf Jahre später treffen die beiden Jungen Billy Kimura und Penny Carter in einem Bahnhof aufeinander, in dem ein neuer G-Reaktions-angetriebener Stromlinienzug eingeweiht werden soll. Genau an diesem Tag wird eine Lawine von Ereignissen losgetreten, die in einer Invasion von Außerirdischen mündet.



Spieldauer: 45min
Genre: Action
Nebengenres: Abenteuer, Action, Scifi
Jahr: 2006
Sprache:
Deutsch.png
Deutsch,
Japanisch.png
Japanisch
Untertitel:
Deutsch.png
Deutsch
Größe pro Folge: ~230 MiB
Episodenanzahl: 6/6
Format: AVI
Auflösung: 400p (16:9)
Videocodec: XviD (MPEG-4 Visual)
Audiocodec: MPEG Audio
Releasegruppe: IND
Hoster:
rapidgator-gif.30742
Rapidgator,
ddownload-gif.30720
ddownload


Code:
[color=red]
Format                                   : AVI
Format/Info                              : Audio Video Interleave
File size                                : 230 MiB
Duration                                 : 24mn 1s
Overall bit rate                         : 1 339 Kbps
Writing application                      : VirtualDubMod 1.5.10.2 (build 2540/release)
Writing library                          : VirtualDubMod build 2540/release

Video
ID                                       : 0
Format                                   : MPEG-4 Visual
Format profile                           : Advanced Simple@L5
Format settings, BVOP                    : 2
Format settings, QPel                    : No
Format settings, GMC                     : No warppoints
Format settings, Matrix                  : Default (H.263)
Muxing mode                              : Packed bitstream
Codec ID                                 : XVID
Codec ID/Hint                            : XviD
Duration                                 : 24mn 1s
Bit rate                                 : 1 004 Kbps
Width                                    : 720 pixels
Height                                   : 400 pixels
Display aspect ratio                     : 16:9
Frame rate                               : 25.000 fps
Color space                              : YUV
Chroma subsampling                       : 4:2:0
Bit depth                                : 8 bits
Scan type                                : Progressive
Compression mode                         : Lossy
Bits/(Pixel*Frame)                       : 0.139
Stream size                              : 172 MiB (75%)
Writing library                          : XviD 1.1.0 (UTC 2005-11-22)

Audio #1
ID                                       : 1
Format                                   : MPEG Audio
Format version                           : Version 1
Format profile                           : Layer 3
Mode                                     : Joint stereo
Mode extension                           : MS Stereo
Codec ID                                 : 55
Codec ID/Hint                            : MP3
Duration                                 : 24mn 0s
Bit rate mode                            : Constant
Bit rate                                 : 160 Kbps
Channel(s)                               : 2 channels
Sampling rate                            : 48.0 KHz
Compression mode                         : Lossy
Stream size                              : 27.5 MiB (12%)
Alignment                                : Aligned on interleaves
Interleave, duration                     : 40 ms (1.00 video frame)
Interleave, preload duration             : 504 ms

Audio #2
ID                                       : 2
Format                                   : MPEG Audio
Format version                           : Version 1
Format profile                           : Layer 3
Mode                                     : Joint stereo
Mode extension                           : MS Stereo
Codec ID                                 : 55
Codec ID/Hint                            : MP3
Duration                                 : 24mn 0s
Bit rate mode                            : Constant
Bit rate                                 : 160 Kbps
Channel(s)                               : 2 channels
Sampling rate                            : 48.0 KHz
Compression mode                         : Lossy
Stream size                              : 27.5 MiB (12%)
Alignment                                : Aligned on interleaves
Interleave, duration                     : 40 ms (1.00 video frame)
Interleave, preload duration             : 504 ms

[/color]



download.png

Status: Rapidgator
0B67831F10.png
ddownload
83AA0BBB36.png

To view the content, you need to Sign In or Register.

Animes.so Release Manager
 
Zuletzt bearbeitet: