1. Aktuell funktioniert unser Image Proxy nicht mehr ordnungsgemäß, sodass keine Bilder mehr angezeigt werden. Wir kümmern uns darum!

Wir verwenden Cookies, um deinen Aufenthalt auf Animes.so möglichst angenehm gestalten zu können. Mehr erfahren

Saenai Heroine no Sodatekata Flat | Saekano: How to Raise a Boring Girlfriend.flat + OVA [Jap-Dub][Ger-Eng-Sub][1080p][10bits]][x265][BluRay] - Beatrice-Raws

Dieses Thema im Forum "Download Archiv" wurde erstellt von Azugo, 29. Okt. 2020.

  1. Azugo
    Azugo

    H͓̽u͓̽g͓̽o͓̽ ͓̽&͓̽ ͓̽A͓̽z͓̽u͓̽r͓̽a͓̽ Seelenverkäufer Uploader

    Registriert seit:
    25. März 2020
    Beiträge:
    408
    Zustimmungen:
    4.757

    Saenai Heroine no Sodatekata Flat | Saekano: How to Raise a Boring Girlfriend.flat



    [​IMG]


    [​IMG]

    [​IMG]

    Spieldauer: 23min
    Genre: Liebesdrama
    Nebengenres: Drama, Harem, Komödie, Romanze
    Jahr: 2017
    Sprache: Japanisch
    Untertitel: Deutsch, Englisch (Amazon)
    Größe pro Folge: ~815mb
    Episodenanzahl: 12/12
    Format: MKV
    Auflösung: 1080p (16:9)
    Videocodec: H265 (HEVC)
    Audiocodec: FLAC
    Releasegruppe: Beatrice-Raws
    Hoster: Uploaded, ddownload


    [​IMG]
    Code:
    Format                                   : Matroska
    Format version                           : Version 4
    File size                                : 816 MiB
    Duration                                 : 22 min 52 s
    Overall bit rate mode                    : Variable
    Overall bit rate                         : 4 989 kb/s
    Encoded date                             : UTC 2020-10-27 22:53:40
    Writing application                      : mkvmerge v51.0.0 ('I Wish') 64-bit
    Writing library                          : libebml v1.4.0 + libmatroska v1.6.2
    
    Video
    ID                                       : 1
    Format                                   : HEVC
    Format/Info                              : High Efficiency Video Coding
    Format profile                           : Main 10@L4@Main
    Codec ID                                 : V_MPEGH/ISO/HEVC
    Duration                                 : 22 min 52 s
    Bit rate                                 : 3 580 kb/s
    Width                                    : 1 920 pixels
    Height                                   : 1 080 pixels
    Display aspect ratio                     : 16:9
    Frame rate mode                          : Constant
    Frame rate                               : 23.976 (24000/1001) FPS
    Color space                              : YUV
    Chroma subsampling                       : 4:2:0
    Bit depth                                : 10 bits
    Bits/(Pixel*Frame)                       : 0.072
    Stream size                              : 586 MiB (72%)
    Writing library                          : x265 3.4+26-ga82c6c7a7:[Windows][MSVC 1927][64 bit] 10bit
    Encoding settings                        : cpuid=1049583 / frame-threads=16 / numa-pools=24,24 / wpp / pmode / pme / no-psnr / no-ssim / log-level=2 / csv / csv-log-level=0 / input-csp=1 / input-res=1920x1080 / interlace=0 / total-frames=0 / level-idc=0 / high-tier=1 / uhd-bd=0 / ref=4 / no-allow-non-conformance / no-repeat-headers / annexb / no-aud / no-hrd / info / hash=0 / no-temporal-layers / open-gop / min-keyint=23 / keyint=240 / gop-lookahead=0 / bframes=8 / b-adapt=2 / b-pyramid / bframe-bias=0 / rc-lookahead=20 / lookahead-slices=6 / scenecut=40 / hist-scenecut=0 / radl=0 / no-splice / no-intra-refresh / ctu=64 / min-cu-size=8 / no-rect / no-amp / max-tu-size=32 / tu-inter-depth=2 / tu-intra-depth=2 / limit-tu=0 / rdoq-level=2 / dynamic-rd=0.00 / no-ssim-rd / signhide / no-tskip / nr-intra=0 / nr-inter=0 / no-constrained-intra / no-strong-intra-smoothing / max-merge=5 / limit-refs=1 / no-limit-modes / me=3 / subme=7 / merange=57 / temporal-mvp / no-frame-dup / no-hme / weightp / weightb / analyze-src-pics / deblock=1:-1 / no-sao / no-sao-non-deblock / rd=5 / selective-sao=0 / no-early-skip / rskip / no-fast-intra / no-tskip-fast / no-cu-lossless / b-intra / no-splitrd-skip / rdpenalty=0 / psy-rd=2.00 / psy-rdoq=4.00 / no-rd-refine / no-lossless / cbqpoffs=-2 / crqpoffs=-2 / rc=crf / crf=15.5 / qcomp=0.72 / qpstep=4 / stats-write=0 / stats-read=0 / ipratio=1.40 / pbratio=1.30 / aq-mode=3 / aq-strength=1.03 / no-cutree / zone-count=0 / no-strict-cbr / qg-size=32 / no-rc-grain / qpmax=69 / qpmin=0 / no-const-vbv / sar=0 / overscan=0 / videoformat=5 / range=0 / colorprim=1 / transfer=1 / colormatrix=1 / chromaloc=0 / display-window=0 / cll=0,0 / min-luma=0 / max-luma=1023 / log2-max-poc-lsb=8 / vui-timing-info / vui-hrd-info / slices=1 / no-opt-qp-pps / no-opt-ref-list-length-pps / no-multi-pass-opt-rps / scenecut-bias=0.05 / hist-threshold=0.03 / no-opt-cu-delta-qp / no-aq-motion / no-hdr10 / no-hdr10-opt / no-dhdr10-opt / no-idr-recovery-sei / analysis-reuse-level=0 / analysis-save-reuse-level=0 / analysis-load-reuse-level=0 / scale-factor=0 / refine-intra=4 / refine-inter=0 / refine-mv=3 / refine-ctu-distortion=0 / no-limit-sao / ctu-info=0 / no-lowpass-dct / refine-analysis-type=0 / copy-pic=1 / max-ausize-factor=1.0 / dynamic-refine / no-single-sei / no-hevc-aq / no-svt / no-field / qp-adaptation-range=2.00 / no-scenecut-aware-qpconformance-window-offsets / right=0 / bottom=0 / decoder-max-rate=0 / no-vbv-live-multi-pass
    Language                                 : Japanese
    Default                                  : No
    Forced                                   : No
    Color range                              : Limited
    Color primaries                          : BT.709
    Transfer characteristics                 : BT.709
    Matrix coefficients                      : BT.709
    
    Audio
    ID                                       : 2
    Format                                   : FLAC
    Format/Info                              : Free Lossless Audio Codec
    Codec ID                                 : A_FLAC
    Duration                                 : 22 min 52 s
    Bit rate mode                            : Variable
    Bit rate                                 : 1 406 kb/s
    Channel(s)                               : 2 channels
    Channel layout                           : L R
    Sampling rate                            : 48.0 kHz
    Frame rate                               : 11.719 FPS (4096 SPF)
    Bit depth                                : 24 bits
    Compression mode                         : Lossless
    Stream size                              : 230 MiB (28%)
    Writing library                          : CUETools FLACCL 2.1.6
    Language                                 : Japanese
    Default                                  : No
    Forced                                   : No
    
    Text #1
    ID                                       : 3
    Format                                   : ASS
    Codec ID                                 : S_TEXT/ASS
    Codec ID/Info                            : Advanced Sub Station Alpha
    Duration                                 : 22 min 38 s
    Bit rate                                 : 128 b/s
    Count of elements                        : 355
    Compression mode                         : Lossless
    Stream size                              : 21.3 KiB (0%)
    Language                                 : German
    Default                                  : Yes
    Forced                                   : No
    
    Text #2
    ID                                       : 4
    Format                                   : ASS
    Codec ID                                 : S_TEXT/ASS
    Codec ID/Info                            : Advanced Sub Station Alpha
    Duration                                 : 22 min 38 s
    Bit rate                                 : 125 b/s
    Count of elements                        : 363
    Compression mode                         : Lossless
    Stream size                              : 20.8 KiB (0%)
    Language                                 : English
    Default                                  : No
    Forced                                   : No
    
    Menu
    00:00:00.000                             : en:Avant
    00:02:29.023                             : en:OP
    00:03:58.988                             : en:Part A
    00:13:18.005                             : en:Part B
    00:21:55.397                             : en:ED
    
    


    Hinweis: OVA=E01

    Status: [​IMG]
    Geschützter Bereich
    Registriere dich oder logge dich ein, um den Inhalt sehen zu können
     
    Zuletzt bearbeitet: 29. Okt. 2020

Diese Seite empfehlen