Welcome to our Community
Wanting to join the rest of our members? Feel free to sign up today.
Sign up

Evangelion: 3.0+1.01 Thrice Upon A Time [Jap-Eng-Ger-Fre-Spa-Ita-Dub][Eng-Ger-Fre-Spa-Ita-Sub][2160p][Opus][10bit][AV1][BluRay] - Kleinmike

Kleinmike

Uploader
Otaku König
21 März 2021
284
4.716
93
Evangelion: 3.0+1.01 Thrice Upon A Time
Shin Evangelion Gekijouban:|| | シン・エヴァンゲリオン劇場版:||

4680_300.webp


Beschreibung:
Der Versuch, die Auswirkungen des Third Impact rückgängig zu machen, verlief alles andere als geplant, denn um ein Haar wäre wegen Einheit 13 der Fourth Impact eingeleitet und womöglich die Menschheit als solche tatsächlich ausgelöscht worden; nur dank Kaworus heldenhaften Einsatzes konnte Shinji gerettet und das Schlimmste verhindert werden. Niedergeschlagen durch ihr Versagen streifen Asuka, Shinji und Rei nun durch die weiterhin verwüstete Landschaft.

Bald finden sie Zuflucht in einer Siedlung mit Überlebenden, in der Asuka und ein paar Bewohner den noch immer traumatisierten Shinji aufpäppeln. Nach einer Weile holt sie die Realität jedoch wieder ein: Die Organisation WILLE arbeitet weiterhin daran, Teile der Erdoberfläche wiederherzustellen, und muss sich mit wiederholten Angriffen durch NERV herumschlagen. Schon bald kehrt Asuka auf das Schiff Wunder zurück und wird dabei von Shinji begleitet.

Es ist klar, dass die entscheidende Schlacht bevorsteht: NERV beabsichtigt, nahe der Antarktis Einheit 13 wieder zu aktivieren, den letzten Impact einzuleiten und damit Gendou Ikaris Vision, sämtliche Seelen zu vereinen, umzusetzen. Wird WILLE dieses Vorhaben verhindern können oder tragen am Ende doch NERVs geballte Streitmacht und überlegene Technologie den Sieg davon?
Quelle: anisearch



Spieldauer: 2h 36min
Größe: 11.3GB
Sprache: Japanisch | Englisch | Deutsch | Französich | Spanisch | Italienisch
Untertitel: Englisch | Deutsch | Französich | Spanisch | Italienisch
Jahr: 2021
Genres: Actiondrama, Abenteuer, Mecha, Fantasy, Psychodrama, Scifi
Auflösung: 3840x1632
Format: MKV
Videocodec: AV1
Farbtiefe: 10bit
Audiocodec: Opus
Studio: Studio Khara
Hoster: DDownload | Rapidgator

Mediainfo:
Code:
Format                                   : Matroska
Format version                           : Version 4
File size                                : 11.3 GiB
Duration                                 : 2 h 36 min
Overall bit rate                         : 10.4 Mb/s
Movie name                               : EVANGELION:3.0+1.11 UHD DISC
Encoded date                             : UTC 2023-03-14 15:28:51
Writing application                      : mkvmerge v68.0.0 ('The Curtain') 64-bit
Writing library                          : libebml v1.4.2 + libmatroska v1.6.4
Released by                              : Kleinmike

Video
ID                                       : 1
Format                                   : AV1
Format/Info                              : AOMedia Video 1
Format profile                           : [email protected]
Codec ID                                 : V_AV1
Duration                                 : 2 h 35 min
Bit rate                                 : 8 572 kb/s
Width                                    : 3 840 pixels
Height                                   : 1 632 pixels
Display aspect ratio                     : 2.35:1
Frame rate mode                          : Constant
Frame rate                               : 23.976 (24000/1001) FPS
Color space                              : YUV
Chroma subsampling                       : 4:2:0
Bit depth                                : 10 bits
Bits/(Pixel*Frame)                       : 0.057
Stream size                              : 9.28 GiB (82%)
Default                                  : Yes
Forced                                   : No
Color range                              : Limited
Color primaries                          : BT.2020
Transfer characteristics                 : BT.2020 (10-bit)
Matrix coefficients                      : BT.2020 non-constant

Audio #1
ID                                       : 2
Format                                   : Opus
Codec ID                                 : A_OPUS
Duration                                 : 2 h 35 min
Bit rate                                 : 300 kb/s
Channel(s)                               : 6 channels
Channel layout                           : L R C Lb Rb LFE
Sampling rate                            : 48.0 kHz
Frame rate                               : 50.000 FPS (960 SPF)
Compression mode                         : Lossy
Stream size                              : 333 MiB (3%)
Title                                    : Japanese 5.1
Language                                 : Japanese
Default                                  : Yes
Forced                                   : No

Audio #2
ID                                       : 3
Format                                   : Opus
Codec ID                                 : A_OPUS
Duration                                 : 2 h 36 min
Bit rate                                 : 308 kb/s
Channel(s)                               : 6 channels
Channel layout                           : L R C Lb Rb LFE
Sampling rate                            : 48.0 kHz
Frame rate                               : 50.000 FPS (960 SPF)
Compression mode                         : Lossy
Stream size                              : 344 MiB (3%)
Title                                    : English 5.1
Language                                 : English
Default                                  : No
Forced                                   : No

Audio #3
ID                                       : 4
Format                                   : Opus
Codec ID                                 : A_OPUS
Duration                                 : 2 h 36 min
Bit rate                                 : 306 kb/s
Channel(s)                               : 6 channels
Channel layout                           : L R C Lb Rb LFE
Sampling rate                            : 48.0 kHz
Frame rate                               : 50.000 FPS (960 SPF)
Compression mode                         : Lossy
Stream size                              : 342 MiB (3%)
Title                                    : German 5.1
Language                                 : German
Default                                  : No
Forced                                   : No

Audio #4
ID                                       : 5
Format                                   : Opus
Codec ID                                 : A_OPUS
Duration                                 : 2 h 36 min
Bit rate                                 : 306 kb/s
Channel(s)                               : 6 channels
Channel layout                           : L R C Lb Rb LFE
Sampling rate                            : 48.0 kHz
Frame rate                               : 50.000 FPS (960 SPF)
Compression mode                         : Lossy
Stream size                              : 342 MiB (3%)
Title                                    : French 5.1
Language                                 : French
Default                                  : No
Forced                                   : No

Audio #5
ID                                       : 6
Format                                   : Opus
Codec ID                                 : A_OPUS
Duration                                 : 2 h 36 min
Bit rate                                 : 306 kb/s
Channel(s)                               : 6 channels
Channel layout                           : L R C Lb Rb LFE
Sampling rate                            : 48.0 kHz
Frame rate                               : 50.000 FPS (960 SPF)
Compression mode                         : Lossy
Stream size                              : 341 MiB (3%)
Title                                    : Spanish 5.1
Language                                 : Spanish
Default                                  : No
Forced                                   : No

Audio #6
ID                                       : 7
Format                                   : Opus
Codec ID                                 : A_OPUS
Duration                                 : 2 h 36 min
Bit rate                                 : 308 kb/s
Channel(s)                               : 6 channels
Channel layout                           : L R C Lb Rb LFE
Sampling rate                            : 48.0 kHz
Frame rate                               : 50.000 FPS (960 SPF)
Compression mode                         : Lossy
Stream size                              : 344 MiB (3%)
Title                                    : Italian 5.1
Language                                 : Italian
Default                                  : No
Forced                                   : No

Text #1
ID                                       : 8
Format                                   : UTF-8
Codec ID                                 : S_TEXT/UTF8
Codec ID/Info                            : UTF-8 Plain Text
Duration                                 : 2 h 34 min
Bit rate                                 : 60 b/s
Count of elements                        : 1782
Stream size                              : 68.3 KiB (0%)
Title                                    : English Full
Language                                 : English
Default                                  : No
Forced                                   : No

Text #2
ID                                       : 9
Format                                   : UTF-8
Codec ID                                 : S_TEXT/UTF8
Codec ID/Info                            : UTF-8 Plain Text
Duration                                 : 2 h 34 min
Bit rate                                 : 67 b/s
Count of elements                        : 2126
Stream size                              : 76.2 KiB (0%)
Title                                    : English SDH
Language                                 : English
Default                                  : No
Forced                                   : No

Text #3
ID                                       : 10
Format                                   : UTF-8
Codec ID                                 : S_TEXT/UTF8
Codec ID/Info                            : UTF-8 Plain Text
Duration                                 : 2 h 34 min
Bit rate                                 : 3 b/s
Count of elements                        : 119
Stream size                              : 4.34 KiB (0%)
Title                                    : English Forced
Language                                 : English
Default                                  : No
Forced                                   : No

Text #4
ID                                       : 11
Format                                   : UTF-8
Codec ID                                 : S_TEXT/UTF8
Codec ID/Info                            : UTF-8 Plain Text
Duration                                 : 2 h 34 min
Bit rate                                 : 59 b/s
Count of elements                        : 1718
Stream size                              : 67.8 KiB (0%)
Title                                    : German Full
Language                                 : German
Default                                  : No
Forced                                   : No

Text #5
ID                                       : 12
Format                                   : UTF-8
Codec ID                                 : S_TEXT/UTF8
Codec ID/Info                            : UTF-8 Plain Text
Duration                                 : 2 h 34 min
Bit rate                                 : 0 b/s
Count of elements                        : 14
Stream size                              : 369 Bytes (0%)
Title                                    : German Forced
Language                                 : German
Default                                  : No
Forced                                   : No

Text #6
ID                                       : 13
Format                                   : UTF-8
Codec ID                                 : S_TEXT/UTF8
Codec ID/Info                            : UTF-8 Plain Text
Duration                                 : 2 h 34 min
Bit rate                                 : 59 b/s
Count of elements                        : 2078
Stream size                              : 67.5 KiB (0%)
Title                                    : French Full
Language                                 : French
Default                                  : No
Forced                                   : No

Text #7
ID                                       : 14
Format                                   : UTF-8
Codec ID                                 : S_TEXT/UTF8
Codec ID/Info                            : UTF-8 Plain Text
Duration                                 : 2 h 34 min
Bit rate                                 : 3 b/s
Count of elements                        : 141
Stream size                              : 3.71 KiB (0%)
Title                                    : French Forced
Language                                 : French
Default                                  : No
Forced                                   : No

Text #8
ID                                       : 15
Format                                   : UTF-8
Codec ID                                 : S_TEXT/UTF8
Codec ID/Info                            : UTF-8 Plain Text
Duration                                 : 2 h 34 min
Bit rate                                 : 55 b/s
Count of elements                        : 1983
Stream size                              : 62.4 KiB (0%)
Title                                    : Spanish Full
Language                                 : Spanish
Default                                  : No
Forced                                   : No

Text #9
ID                                       : 16
Format                                   : UTF-8
Codec ID                                 : S_TEXT/UTF8
Codec ID/Info                            : UTF-8 Plain Text
Duration                                 : 2 h 34 min
Bit rate                                 : 2 b/s
Count of elements                        : 153
Stream size                              : 3.39 KiB (0%)
Title                                    : Spanish Forced
Language                                 : Spanish
Default                                  : No
Forced                                   : No

Text #10
ID                                       : 17
Format                                   : UTF-8
Codec ID                                 : S_TEXT/UTF8
Codec ID/Info                            : UTF-8 Plain Text
Duration                                 : 2 h 33 min
Bit rate                                 : 66 b/s
Count of elements                        : 1879
Stream size                              : 75.0 KiB (0%)
Title                                    : Italian Full
Language                                 : Italian
Default                                  : No
Forced                                   : No

Text #11
ID                                       : 18
Format                                   : UTF-8
Codec ID                                 : S_TEXT/UTF8
Codec ID/Info                            : UTF-8 Plain Text
Duration                                 : 2 h 33 min
Bit rate                                 : 3 b/s
Count of elements                        : 141
Stream size                              : 3.90 KiB (0%)
Title                                    : Italian Forced
Language                                 : Italian
Default                                  : No
Forced                                   : No

Menu
00:00:00.000                             : :Chapter 01
00:00:11.886                             : :Chapter 02
00:03:54.734                             : :Chapter 03
00:04:02.367                             : :Chapter 04
00:04:09.874                             : :Chapter 05
00:04:17.924                             : :Chapter 06
00:06:26.761                             : :Chapter 07
00:09:52.883                             : :Chapter 08
00:12:57.568                             : :Chapter 09
00:14:31.537                             : :Chapter 10
00:17:14.742                             : :Chapter 11
00:19:27.958                             : :Chapter 12
00:22:41.777                             : :Chapter 13
00:26:12.404                             : :Chapter 14
00:32:00.752                             : :Chapter 15
00:38:00.027                             : :Chapter 16
00:42:02.102                             : :Chapter 17
00:44:12.191                             : :Chapter 18
00:50:15.220                             : :Chapter 19
00:56:23.630                             : :Chapter 20
00:59:25.061                             : :Chapter 21
01:04:09.512                             : :Chapter 22
01:05:16.412                             : :Chapter 23
01:11:52.308                             : :Chapter 24
01:14:37.848                             : :Chapter 25
01:17:49.998                             : :Chapter 26
01:19:51.495                             : :Chapter 27
01:25:06.017                             : :Chapter 28
01:27:18.524                             : :Chapter 29
01:31:24.270                             : :Chapter 30
01:33:26.225                             : :Chapter 31
01:36:23.569                             : :Chapter 32
01:39:38.055                             : :Chapter 33
01:44:20.254                             : :Chapter 34
01:45:58.477                             : :Chapter 35
01:49:14.172                             : :Chapter 36
01:55:25.251                             : :Chapter 37
01:59:28.911                             : :Chapter 38
02:00:44.737                             : :Chapter 39
02:02:50.738                             : :Chapter 40
02:08:04.051                             : :Chapter 41
02:10:35.619                             : :Chapter 42
02:12:33.153                             : :Chapter 43
02:15:02.719                             : :Chapter 44
02:19:01.374                             : :Chapter 45
02:24:53.184                             : :Chapter 46
02:29:05.519                             : :Chapter 47
02:34:49.238                             : :Chapter 48


Status:
1080p:
276E1FEBCC.png


To view the content, you need to Sign In or Register.
 
Zuletzt bearbeitet:

Kleinmike

Uploader
Otaku König
21 März 2021
284
4.716
93
Anmerkung:
Videostream stammt aus der Japanischen UHD BluRay. Der Farbraum ist zwar BT.2020 jedoch befinden sich keine HDR Metadaten auf der Disc somit ist es kein HDR Release.
Der größere Farbraum ist jedoch trotzdem vorteilhaft.
Audio sowie Untertitel stammen alle aus dem Amazon WebDL und wurden von mir schon gesynced 🙃

Viel Spaß <3