Wir verwenden Cookies, um deinen Aufenthalt auf Animes.so möglichst angenehm gestalten zu können. Mehr erfahren

Tokyo Ghoul √A[Ger-Jap-Dub][Ger-Sub][AC3|DTS-HD][720p|1080p][x264|x265][BluRay] - ABJ

Dieses Thema im Forum "Download Archiv" wurde erstellt von supersonik, 10. Feb. 2021.

  1. supersonik
    supersonik

    Elite Nolife Uploader

    Registriert seit:
    7. Jan. 2018
    Beiträge:
    631
    Zustimmungen:
    27.361

    Tokyo Ghoul √A
    東京喰種√A
    [​IMG]

    Beschreibung:
    »Tokyo Ghoul √A« knüpft nahtlos an die vorherige Staffel an, schlägt jedoch einen Weg ein, der sich von der Manga-Vorlage unterscheidet.

    Nachdem Ken Kaneki vom Ghul Jason entführt würde, machen sich die übrigen Mitglieder des Cafés Antik auf, ihn zu retten. Zeitgleich startet das CCG eine großangelegte Offensive auf die Basis des Phönixbaums, in der auch Kaneki gefangen gehalten wird. Während Touka sich nach kurzer Zeit ihrem Bruder Ayato im Kampf stellen muss, sieht sich das CCG mit einem äußert gefährlichen Gegner konfrontiert: dem Ghoul »Eule«, der dem CCG in der Vergangenheit eine schmerzliche Niederlage einbrachte. Unterdessen kann sich Kaneki erfolgreich aus seiner Gefangenschaft befreien und Jason besiegen. Doch nachdem die Kämpfe beendet sind, beschließt er, nicht zum Antik zurückzukehren, sondern sich dem Phönixbaum anzuschließen…
    by anisearch.de

    Episoden: 12/12
    Größe: ~680 MB | ~2180 MB | ~1610 MB
    Releaser: Anime BluRay Junkies
    Art: Lizenzrelease
    Sprache: Deutsch | Japanisch
    Untertitel: Deutsch
    Jahr: 2015
    Genres: Horror, Action, Fantasy, Mystery, Psychodrama, Übermäßige Gewaltdarstellung, Gegenwart, Martial Arts, Monster, Splatter, Tragödie, Universität
    Auflösung: 1280x720 | 1920x1080
    Format: MKV
    Quelle: BluRay
    Videocodec: x264 | x265
    Farbtiefe: 8bit
    Audiocodec: AC3 | DTS-HD
    Publisher: Pierrot Co. Ltd. | Kaze
    Hoster: DDownload | Uploaded


    Mediainfo:
    Code:
    General Unique ID : 289984688951842712141891837829923727192 (0xDA290503A0E87391599EADEFBAEFE758) Complete name : Tokyo.Ghoul.S02E01.German.DL.AC3.720p.BluRay.x264-ABJ.mkv Format : Matroska Format version : Version 4 File size : 681 MiB Duration : 24 min 5 s Overall bit rate : 3 954 kb/s Encoded date : UTC 2020-11-27 14:37:02 Writing application : mkvmerge v51.0.0 ('I Wish') 64-bit Writing library : libebml v1.4.0 + libmatroska v1.6.2 / Lavf58.42.101 VERSION : 1.1 Video ID : 1 Format : AVC Format/Info : Advanced Video Codec Format profile : High@L5 Format settings : CABAC / 12 Ref Frames Format settings, CABAC : Yes Format settings, Reference frames : 12 frames Codec ID : V_MPEG4/ISO/AVC Duration : 24 min 5 s Bit rate : 2 663 kb/s Width : 1 280 pixels Height : 720 pixels Display aspect ratio : 16:9 Frame rate mode : Constant Frame rate : 23.976 (24000/1001) FPS Color space : YUV Chroma subsampling : 4:2:0 Bit depth : 8 bits Scan type : Progressive Bits/(Pixel*Frame) : 0.121 Stream size : 459 MiB (67%) Default : Yes Forced : No Audio #1 ID : 2 Format : AC-3 Format/Info : Audio Coding 3 Commercial name : Dolby Digital Codec ID : A_AC3 Duration : 24 min 5 s Bit rate mode : Constant Bit rate : 640 kb/s Channel(s) : 2 channels Channel layout : L R Sampling rate : 48.0 kHz Frame rate : 31.250 FPS (1536 SPF) Compression mode : Lossy Stream size : 110 MiB (16%) Title : Stereo Language : German Service kind : Complete Main Default : Yes Forced : No Audio #2 ID : 3 Format : AC-3 Format/Info : Audio Coding 3 Commercial name : Dolby Digital Codec ID : A_AC3 Duration : 24 min 5 s Bit rate mode : Constant Bit rate : 640 kb/s Channel(s) : 2 channels Channel layout : L R Sampling rate : 48.0 kHz Frame rate : 31.250 FPS (1536 SPF) Compression mode : Lossy Stream size : 110 MiB (16%) Title : Stereo Language : Japanese Service kind : Complete Main Default : No Forced : No Text #1 ID : 4 Format : PGS Muxing mode : zlib Codec ID : S_HDMV/PGS Codec ID/Info : Picture based subtitle format used on BDs/HD-DVDs Duration : 22 min 50 s Bit rate : 3 900 b/s Count of elements : 85 Stream size : 653 KiB (0%) Language : German Default : Yes Forced : Yes Text #2 ID : 5 Format : PGS Muxing mode : zlib Codec ID : S_HDMV/PGS Codec ID/Info : Picture based subtitle format used on BDs/HD-DVDs Duration : 22 min 50 s Bit rate : 18.3 kb/s Count of elements : 459 Stream size : 2.99 MiB (0%) Language : German Default : No Forced : No Menu 00:00:00.000 : :Chapter 01 00:02:35.029 : :Chapter 02 00:09:33.072 : :Chapter 03 00:22:32.059 : :Chapter 04 ​
    Code:
    General Unique ID : 313432708704222513925940736035063369165 (0xEBCCF1A5075177DA6EFEFFF01E508DCD) Complete name : Tokyo.Ghoul.S02E01.German.DL.DTS.1080p.BluRay.x264-ABJ.mkv Format : Matroska Format version : Version 4 File size : 2.18 GiB Duration : 24 min 5 s Overall bit rate mode : Variable Overall bit rate : 12.9 Mb/s Encoded date : UTC 2020-11-30 00:49:01 Writing application : mkvmerge v51.0.0 ('I Wish') 64-bit Writing library : libebml v1.4.0 + libmatroska v1.6.2 / Lavf58.42.101 VERSION : 1.1 Video ID : 1 Format : AVC Format/Info : Advanced Video Codec Format profile : High@L5 Format settings : CABAC / 12 Ref Frames Format settings, CABAC : Yes Format settings, Reference frames : 12 frames Codec ID : V_MPEG4/ISO/AVC Duration : 24 min 5 s Bit rate : 8 609 kb/s Width : 1 920 pixels Height : 1 080 pixels Display aspect ratio : 16:9 Frame rate mode : Constant Frame rate : 23.976 (24000/1001) FPS Color space : YUV Chroma subsampling : 4:2:0 Bit depth : 8 bits Scan type : Progressive Bits/(Pixel*Frame) : 0.173 Stream size : 1.45 GiB (67%) Default : Yes Forced : No Audio #1 ID : 2 Format : DTS XLL Format/Info : Digital Theater Systems Commercial name : DTS-HD Master Audio Codec ID : A_DTS Duration : 24 min 5 s Bit rate mode : Variable Bit rate : 2 144 kb/s Channel(s) : 2 channels Channel layout : L R Sampling rate : 48.0 kHz Frame rate : 93.750 FPS (512 SPF) Bit depth : 24 bits Compression mode : Lossless Stream size : 370 MiB (17%) Title : Stereo Language : German Default : Yes Forced : No Audio #2 ID : 3 Format : DTS XLL Format/Info : Digital Theater Systems Commercial name : DTS-HD Master Audio Codec ID : A_DTS Duration : 24 min 5 s Bit rate mode : Variable Bit rate : 2 165 kb/s Channel(s) : 2 channels Channel layout : L R Sampling rate : 48.0 kHz Frame rate : 93.750 FPS (512 SPF) Bit depth : 24 bits Compression mode : Lossless Stream size : 373 MiB (17%) Title : Stereo Language : Japanese Default : No Forced : No Text #1 ID : 4 Format : PGS Muxing mode : zlib Codec ID : S_HDMV/PGS Codec ID/Info : Picture based subtitle format used on BDs/HD-DVDs Duration : 22 min 50 s Bit rate : 3 900 b/s Count of elements : 85 Stream size : 653 KiB (0%) Language : German Default : Yes Forced : Yes Text #2 ID : 5 Format : PGS Muxing mode : zlib Codec ID : S_HDMV/PGS Codec ID/Info : Picture based subtitle format used on BDs/HD-DVDs Duration : 22 min 50 s Bit rate : 18.3 kb/s Count of elements : 459 Stream size : 2.99 MiB (0%) Language : German Default : No Forced : No Menu 00:00:00.000 : :Chapter 01 00:02:35.029 : :Chapter 02 00:09:33.072 : :Chapter 03 00:22:32.059 : :Chapter 04 ​
    Code:
    General Unique ID : 253281887646765063941920243189263533316 (0xBE8C5132A44E42424AA2259773FA8504) Complete name : Tokyo.Ghoul.S02E01.German.DL.DTS.1080p.BluRay.x265-ABJ.mkv Format : Matroska Format version : Version 4 File size : 1.61 GiB Duration : 24 min 5 s Overall bit rate mode : Variable Overall bit rate : 9 556 kb/s Encoded date : UTC 2020-12-27 18:49:23 Writing application : mkvmerge v51.0.0 ('I Wish') 64-bit Writing library : libebml v1.4.0 + libmatroska v1.6.2 Video ID : 1 Format : HEVC Format/Info : High Efficiency Video Coding Format profile : Main@L6.2@High Codec ID : V_MPEGH/ISO/HEVC Duration : 24 min 5 s Width : 1 920 pixels Height : 1 080 pixels Display aspect ratio : 16:9 Frame rate mode : Constant Frame rate : 23.976 (24000/1001) FPS Color space : YUV Chroma subsampling : 4:2:0 Bit depth : 8 bits Language : Japanese Default : Yes Forced : No Duration_Source : General_Duration Audio #1 ID : 2 Format : DTS XLL Format/Info : Digital Theater Systems Commercial name : DTS-HD Master Audio Codec ID : A_DTS Duration : 24 min 5 s Bit rate mode : Variable Channel(s) : 2 channels Channel layout : L R Sampling rate : 48.0 kHz Frame rate : 93.750 FPS (512 SPF) Bit depth : 24 bits Compression mode : Lossless Language : German Default : Yes Forced : No Duration_Source : General_Duration Audio #2 ID : 3 Format : DTS XLL Format/Info : Digital Theater Systems Commercial name : DTS-HD Master Audio Codec ID : A_DTS Duration : 24 min 5 s Bit rate mode : Variable Channel(s) : 2 channels Channel layout : L R Sampling rate : 48.0 kHz Frame rate : 93.750 FPS (512 SPF) Bit depth : 24 bits Compression mode : Lossless Language : Japanese Default : No Forced : No Duration_Source : General_Duration Text #1 ID : 4 Format : PGS Muxing mode : zlib Codec ID : S_HDMV/PGS Codec ID/Info : Picture based subtitle format used on BDs/HD-DVDs Language : German Default : Yes Forced : Yes Text #2 ID : 5 Format : PGS Muxing mode : zlib Codec ID : S_HDMV/PGS Codec ID/Info : Picture based subtitle format used on BDs/HD-DVDs Language : German Default : No Forced : No Menu 00:00:00.000 : en:Chapter 01 00:02:35.029 : en:Chapter 02 00:09:33.072 : en:Chapter 03 00:22:32.059 : en:Chapter 04 ​
    x264-720p-ac3: [​IMG]
    x264-1080p-dts: [​IMG]
    x265-1080p-dts: [​IMG]
    Geschützter Bereich
    Registriere dich oder logge dich ein, um den Inhalt sehen zu können
     
    cyberbadghost, Kirak, Skywing und 32 anderen gefällt das.

Diese Seite empfehlen