Wir verwenden Cookies, um deinen Aufenthalt auf Animes.so möglichst angenehm gestalten zu können. Mehr erfahren

Tokyo Ghoul:re[Ger-Jap-Dub][Ger-Sub][AC3|DTS-HD][720p|1080p][x264|x265][BluRay] - ABJ

Dieses Thema im Forum "Download Archiv" wurde erstellt von supersonik, 10. Feb. 2021.

  1. supersonik
    supersonik

    Elite Nolife Uploader

    Registriert seit:
    7. Jan. 2018
    Beiträge:
    631
    Zustimmungen:
    27.361

    Tokyo Ghoul:re
    東京喰種 :re
    [​IMG]

    Beschreibung:
    Tokyo Ghoul:re spielt etwa zwei Jahre nach dem Ende der Ereignisse um Ken Kaneki. Um alle verbliebenen Ghule in Tokio zu eliminieren, wurde die neue Quinx-Einheit gegründet. Diese besteht aus insgesamt fünf Personen, denen durch eine Operation Ghul-Eigenschaften verliehen wurden. Haise Sasaki, ein Ghul-Ermittler ersten Ranges des CCG, ist der Mentor dieser Einheit und gehört zum Team von Akira Mado…
    by anisearch.de

    Episoden: 24/24
    Größe: ~710 MB | ~2250 MB | ~1700 MB
    Releaser: Anime BluRay Junkies
    Art: Lizenzrelease
    Sprache: Deutsch | Japanisch
    Untertitel: Deutsch
    Jahr: 2018
    Genres: Horror, Action, Fantasy, Mystery, Psychodrama, Übermäßige Gewaltdarstellung, Gegenwart, Martial Arts, Monster, Splatter, Tragödie, Universität
    Auflösung: 1280x720 | 1920x1080
    Format: MKV
    Quelle: BluRay
    Videocodec: x264 | x265
    Farbtiefe: 8bit
    Audiocodec: AC3 | DTS-HD
    Publisher: Pierrot Co. Ltd. | Kaze
    Hoster: DDownload | Uploaded


    Mediainfo:
    Code:
    General Unique ID : 36166533314999553448349619357108116096 (0x1B356BC35A6CD02FBDF7F13DE0A79A80) Complete name : Tokyo.Ghoul.S03E01.German.DL.AC3.720p.BluRay.x264-ABJ.mkv Format : Matroska Format version : Version 4 File size : 707 MiB Duration : 24 min 10 s Overall bit rate : 4 088 kb/s Encoded date : UTC 2020-11-29 13:20:50 Writing application : mkvmerge v51.0.0 ('I Wish') 64-bit Writing library : libebml v1.4.0 + libmatroska v1.6.2 / Lavf58.42.101 VERSION : 1.1 Video ID : 1 Format : AVC Format/Info : Advanced Video Codec Format profile : High@L5 Format settings : CABAC / 12 Ref Frames Format settings, CABAC : Yes Format settings, Reference frames : 12 frames Codec ID : V_MPEG4/ISO/AVC Duration : 24 min 10 s Bit rate : 2 789 kb/s Width : 1 280 pixels Height : 720 pixels Display aspect ratio : 16:9 Frame rate mode : Constant Frame rate : 23.976 (24000/1001) FPS Color space : YUV Chroma subsampling : 4:2:0 Bit depth : 8 bits Scan type : Progressive Bits/(Pixel*Frame) : 0.126 Stream size : 482 MiB (68%) Default : Yes Forced : No Audio #1 ID : 2 Format : AC-3 Format/Info : Audio Coding 3 Commercial name : Dolby Digital Codec ID : A_AC3 Duration : 24 min 10 s Bit rate mode : Constant Bit rate : 640 kb/s Channel(s) : 2 channels Channel layout : L R Sampling rate : 48.0 kHz Frame rate : 31.250 FPS (1536 SPF) Compression mode : Lossy Stream size : 111 MiB (16%) Title : Stereo Language : German Service kind : Complete Main Default : Yes Forced : No Audio #2 ID : 3 Format : AC-3 Format/Info : Audio Coding 3 Commercial name : Dolby Digital Codec ID : A_AC3 Duration : 24 min 10 s Bit rate mode : Constant Bit rate : 640 kb/s Channel(s) : 2 channels Channel layout : L R Sampling rate : 48.0 kHz Frame rate : 31.250 FPS (1536 SPF) Compression mode : Lossy Stream size : 111 MiB (16%) Title : Stereo Language : Japanese Service kind : Complete Main Default : No Forced : No Text #1 ID : 4 Format : PGS Muxing mode : zlib Codec ID : S_HDMV/PGS Codec ID/Info : Picture based subtitle format used on BDs/HD-DVDs Duration : 23 min 57 s Bit rate : 4 354 b/s Count of elements : 84 Stream size : 764 KiB (0%) Language : German Default : Yes Forced : Yes Text #2 ID : 5 Format : PGS Muxing mode : zlib Codec ID : S_HDMV/PGS Codec ID/Info : Picture based subtitle format used on BDs/HD-DVDs Duration : 24 min 1 s Bit rate : 38.5 kb/s Count of elements : 688 Stream size : 6.62 MiB (1%) Language : German Default : No Forced : No Menu 00:00:00.000 : :Chapter 01 00:02:12.006 : :Chapter 02 00:14:09.014 : :Chapter 03 00:22:15.042 : :Chapter 04 00:23:45.006 : :Chapter 05 ​
    Code:
    General Unique ID : 91806412942769736339028594627591347335 (0x451145A04E587A836F0DA689927D1C87) Complete name : Tokyo.Ghoul.S03E01.German.DL.DTS.1080p.BluRay.x264-ABJ.mkv Format : Matroska Format version : Version 4 File size : 2.25 GiB Duration : 24 min 10 s Overall bit rate mode : Variable Overall bit rate : 13.3 Mb/s Encoded date : UTC 2020-11-30 00:39:14 Writing application : mkvmerge v51.0.0 ('I Wish') 64-bit Writing library : libebml v1.4.0 + libmatroska v1.6.2 / Lavf58.42.101 VERSION : 1.1 Video ID : 1 Format : AVC Format/Info : Advanced Video Codec Format profile : High@L5 Format settings : CABAC / 12 Ref Frames Format settings, CABAC : Yes Format settings, Reference frames : 12 frames Codec ID : V_MPEG4/ISO/AVC Duration : 24 min 10 s Bit rate : 9 017 kb/s Width : 1 920 pixels Height : 1 080 pixels Display aspect ratio : 16:9 Frame rate mode : Constant Frame rate : 23.976 (24000/1001) FPS Color space : YUV Chroma subsampling : 4:2:0 Bit depth : 8 bits Scan type : Progressive Bits/(Pixel*Frame) : 0.181 Stream size : 1.52 GiB (68%) Default : Yes Forced : No Audio #1 ID : 2 Format : DTS XLL Format/Info : Digital Theater Systems Commercial name : DTS-HD Master Audio Codec ID : A_DTS Duration : 24 min 10 s Bit rate mode : Variable Bit rate : 2 144 kb/s Channel(s) : 2 channels Channel layout : L R Sampling rate : 48.0 kHz Frame rate : 93.750 FPS (512 SPF) Bit depth : 24 bits Compression mode : Lossless Stream size : 371 MiB (16%) Title : Stereo Language : German Default : Yes Forced : No Audio #2 ID : 3 Format : DTS XLL Format/Info : Digital Theater Systems Commercial name : DTS-HD Master Audio Codec ID : A_DTS Duration : 24 min 10 s Bit rate mode : Variable Bit rate : 2 163 kb/s Channel(s) : 2 channels Channel layout : L R Sampling rate : 48.0 kHz Frame rate : 93.750 FPS (512 SPF) Bit depth : 24 bits Compression mode : Lossless Stream size : 374 MiB (16%) Title : Stereo Language : Japanese Default : No Forced : No Text #1 ID : 4 Format : PGS Muxing mode : zlib Codec ID : S_HDMV/PGS Codec ID/Info : Picture based subtitle format used on BDs/HD-DVDs Duration : 23 min 57 s Bit rate : 4 354 b/s Count of elements : 84 Stream size : 764 KiB (0%) Language : German Default : Yes Forced : Yes Text #2 ID : 5 Format : PGS Muxing mode : zlib Codec ID : S_HDMV/PGS Codec ID/Info : Picture based subtitle format used on BDs/HD-DVDs Duration : 24 min 1 s Bit rate : 38.5 kb/s Count of elements : 688 Stream size : 6.62 MiB (0%) Language : German Default : No Forced : No Menu 00:00:00.000 : :Chapter 01 00:02:12.006 : :Chapter 02 00:14:09.014 : :Chapter 03 00:22:15.042 : :Chapter 04 00:23:45.006 : :Chapter 05 ​
    Code:
    General Unique ID : 309434164071093938215621923276913654051 (0xE8CADA2C68298D35F7416E5CFE383923) Complete name : Tokyo.Ghoul.S03E01.German.DL.DTS.1080p.BluRay.x265-ABJ.mkv Format : Matroska Format version : Version 4 File size : 1.70 GiB Duration : 24 min 10 s Overall bit rate mode : Variable Overall bit rate : 10.1 Mb/s Encoded date : UTC 2020-12-27 18:53:19 Writing application : mkvmerge v51.0.0 ('I Wish') 64-bit Writing library : libebml v1.4.0 + libmatroska v1.6.2 Video ID : 1 Format : HEVC Format/Info : High Efficiency Video Coding Format profile : Main@L6.2@High Codec ID : V_MPEGH/ISO/HEVC Duration : 24 min 10 s Width : 1 920 pixels Height : 1 080 pixels Display aspect ratio : 16:9 Frame rate mode : Constant Frame rate : 23.976 (24000/1001) FPS Color space : YUV Chroma subsampling : 4:2:0 Bit depth : 8 bits Language : Japanese Default : Yes Forced : No Duration_Source : General_Duration Audio #1 ID : 2 Format : DTS XLL Format/Info : Digital Theater Systems Commercial name : DTS-HD Master Audio Codec ID : A_DTS Duration : 24 min 10 s Bit rate mode : Variable Channel(s) : 2 channels Channel layout : L R Sampling rate : 48.0 kHz Frame rate : 93.750 FPS (512 SPF) Bit depth : 24 bits Compression mode : Lossless Language : German Default : Yes Forced : No Duration_Source : General_Duration Audio #2 ID : 3 Format : DTS XLL Format/Info : Digital Theater Systems Commercial name : DTS-HD Master Audio Codec ID : A_DTS Duration : 24 min 10 s Bit rate mode : Variable Channel(s) : 2 channels Channel layout : L R Sampling rate : 48.0 kHz Frame rate : 93.750 FPS (512 SPF) Bit depth : 24 bits Compression mode : Lossless Language : Japanese Default : No Forced : No Duration_Source : General_Duration Text #1 ID : 4 Format : PGS Muxing mode : zlib Codec ID : S_HDMV/PGS Codec ID/Info : Picture based subtitle format used on BDs/HD-DVDs Language : German Default : Yes Forced : Yes Text #2 ID : 5 Format : PGS Muxing mode : zlib Codec ID : S_HDMV/PGS Codec ID/Info : Picture based subtitle format used on BDs/HD-DVDs Language : German Default : No Forced : No Menu 00:00:00.000 : en:Chapter 01 00:02:12.006 : en:Chapter 02 00:14:09.014 : en:Chapter 03 00:22:15.042 : en:Chapter 04 00:23:45.006 : en:Chapter 05 ​
    x264-720p-ac3: [​IMG]
    x264-1080p-dts: [​IMG]
    x265-1080p-dts: [​IMG]
    Geschützter Bereich
    Registriere dich oder logge dich ein, um den Inhalt sehen zu können
     
    n0b0dy, MugiwaraChaos, CASyHD und 29 anderen gefällt das.

Diese Seite empfehlen