Wir verwenden Cookies, um deinen Aufenthalt auf Animes.so möglichst angenehm gestalten zu können. Mehr erfahren

Utawarerumono - Itsuwari no Kamen [Jap-Dub][Ger-Sub][720p][8Bit|10Bit][HDTV] - Chinurarete-Subs

Dieses Thema im Forum "Anime Serien (Deutsche Untertitel)" wurde erstellt von Nanachi, 1. Aug. 2020.

  1. Nanachi
    Nanachi

    Uploader Otaku König

    Registriert seit:
    2. Okt. 2017
    Beiträge:
    162
    Zustimmungen:
    1.367

    Utawarerumono: Itsuwari no Kamen
    うたわれるもの 偽りの仮面
    Utawarerumono: The False Faces



    [​IMG]


    Kurzbeschreibung:


    Spieldauer: 25min
    Genre: Abenteuer
    Nebengenres: Abenteuer, Action, Alltagsleben, Drama, Ecchi, Fantasy, Harem, Komödie
    Jahr: 2015
    Sprache: [​IMG] Japanisch
    Untertitel: [​IMG] Deutsch
    Größe pro Folge: 331mb, 282mb
    Episodenanzahl: 25/25
    Source: HDTV
    Format: MP4, MKV
    Auflösung: 720p (16:9)
    Videocodec: H264 (AVC), 8Bit, 10Bit
    Audiocodec: AAC
    Releasegruppe: Chinurarete-Subs
    Hoster: [​IMG] DDownload, [​IMG] Uploaded


    Code:
    Format  : MPEG-4
    Format profile  : Base Media
    Codec ID  : isom
    File size  : 331 MiB
    Duration  : 23mn 41s
    Overall bit rate mode  : Variable
    Overall bit rate  : 1 954 Kbps
    Encoded date  : UTC 2015-10-07 01:50:47
    Tagged date  : UTC 2015-10-07 01:50:47
    Writing application  : Yamb 2.1.0.0 [http://yamb.unite-video.com]
    
    Video
    ID  : 1
    Format  : AVC
    Format/Info  : Advanced Video Codec
    Format profile  : Main@L4.1
    Format settings, CABAC  : Yes
    Format settings, ReFrames  : 9 frames
    Codec ID  : avc1
    Codec ID/Info  : Advanced Video Coding
    Duration  : 23mn 40s
    Bit rate  : 1 824 Kbps
    Maximum bit rate  : 11.3 Mbps
    Width  : 1 280 pixels
    Height  : 720 pixels
    Display aspect ratio  : 16:9
    Frame rate mode  : Constant
    Frame rate  : 23.976 fps
    Color space  : YUV
    Chroma subsampling  : 4:2:0
    Bit depth  : 8 bits
    Scan type  : Progressive
    Bits/(Pixel*Frame)  : 0.083
    Stream size  : 309 MiB (93%)
    Writing library  : x264 core 122 r2184 5c85e0a
    Encoding settings  : cabac=1 / ref=9 / deblock=1:-2:-2 / analyse=0x1:0x131 / me=umh / subme=11 / psy=1 / psy_rd=0.85:0.25 / mixed_ref=1 / me_range=40 / chroma_me=1 / trellis=2 / 8x8dct=0 / cqm=0 / deadzone=21,11 / fast_pskip=0 / chroma_qp_offset=-4 / threads=6 / sliced_threads=0 / nr=0 / decimate=0 / interlaced=0 / bluray_compat=0 / constrained_intra=0 / bframes=16 / b_pyramid=2 / b_adapt=2 / b_bias=0 / direct=1 / weightb=1 / open_gop=0 / weightp=2 / keyint=250 / keyint_min=23 / scenecut=40 / intra_refresh=0 / rc_lookahead=40 / rc=crf / mbtree=1 / crf=16.0 / qcomp=0.70 / qpmin=0 / qpmax=69 / qpstep=4 / ip_ratio=1.40 / aq=2:1.25
    Encoded date  : UTC 2015-10-08 00:44:03
    Tagged date  : UTC 2015-10-07 01:50:48
    
    Audio
    ID  : 2
    Format  : AAC
    Format/Info  : Advanced Audio Codec
    Format profile  : LC
    Codec ID  : 40
    Duration  : 23mn 41s
    Bit rate mode  : Variable
    Bit rate  : 128 Kbps
    Maximum bit rate  : 140 Kbps
    Channel(s)  : 2 channels
    Channel positions  : Front: L R
    Sampling rate  : 44.1 KHz
    Compression mode  : Lossy
    Stream size  : 21.7 MiB (7%)
    Encoded date  : UTC 2015-10-07 01:50:48
    Tagged date  : UTC 2015-10-07 01:50:48
    
    
    Code:
    Format  : Matroska
    Format version  : Version 4 / Version 2
    File size  : 283 MiB
    Duration  : 23mn 42s
    Overall bit rate  : 1 667 Kbps
    Movie name  : [Chinurarete Subs]Utawarerumono - Itsuwari no Kamen
    Encoded date  : UTC 2015-10-07 22:47:29
    Writing application  : mkvmerge v7.0.0 ('Where We Going') 64bit built on Jun  9 2014 15:16:27
    Writing library  : libebml v1.3.0 + libmatroska v1.4.1
    Attachements  : HUMASNL.TTF / HUMASNM.TTF / brushtype-semibold regular.ttf / HUMASNB.TTF / OpenSans-Semibold.ttf
    _STATISTICS_WRITING_APP  : mkvmerge v7.0.0 ('Where We Going') 64bit built on Jun  9 2014 15:16:27
    _STATISTICS_WRITING_DATE_UTC  : 2015-10-07 22:47:29
    _STATISTICS_TAGS  : BPS DURATION NUMBER_OF_FRAMES NUMBER_OF_BYTES
    DURATION  : 00:21:45.530000000
    NUMBER_OF_FRAMES  : 325
    NUMBER_OF_BYTES  : 17456
    
    Video
    ID  : 1
    Format  : AVC
    Format/Info  : Advanced Video Codec
    Format profile  : High 10@L5
    Format settings, CABAC  : Yes
    Format settings, ReFrames  : 16 frames
    Codec ID  : V_MPEG4/ISO/AVC
    Duration  : 23mn 42s
    Width  : 1 280 pixels
    Height  : 720 pixels
    Display aspect ratio  : 16:9
    Frame rate mode  : Constant
    Frame rate  : 23.976 fps
    Color space  : YUV
    Chroma subsampling  : 4:2:0
    Bit depth  : 10 bits
    Scan type  : Progressive
    Title  : Video
    Writing library  : x264 core 133 r2334 a3ac64b
    Encoding settings  : cabac=1 / ref=16 / deblock=1:1:0 / analyse=0x3:0x133 / me=umh / subme=11 / psy=1 / psy_rd=1.15:0.25 / mixed_ref=1 / me_range=30 / chroma_me=1 / trellis=2 / 8x8dct=1 / cqm=0 / deadzone=21,11 / fast_pskip=0 / chroma_qp_offset=-4 / threads=12 / lookahead_threads=3 / sliced_threads=0 / nr=0 / decimate=0 / interlaced=0 / bluray_compat=0 / constrained_intra=0 / bframes=16 / b_pyramid=2 / b_adapt=2 / b_bias=0 / direct=3 / weightb=1 / open_gop=0 / weightp=2 / keyint=249 / keyint_min=23 / scenecut=40 / intra_refresh=0 / rc_lookahead=249 / rc=crf / mbtree=1 / crf=16.0 / qcomp=0.90 / qpmin=0 / qpmax=81 / qpstep=4 / ip_ratio=1.40 / aq=2:0.80
    Language  : German
    Default  : Yes
    Forced  : No
    Color range  : Limited
    Color primaries  : BT.709
    Transfer characteristics  : BT.709
    Matrix coefficients  : BT.709
    
    Audio
    ID  : 2
    Format  : AAC
    Format/Info  : Advanced Audio Codec
    Format profile  : LC
    Codec ID  : A_AAC
    Duration  : 23mn 42s
    Channel(s)  : 2 channels
    Channel positions  : Front: L R
    Sampling rate  : 44.1 KHz
    Compression mode  : Lossy
    Title  : Audio
    Language  : Japanese
    Default  : Yes
    Forced  : No
    _STATISTICS_WRITING_APP  : mkvmerge v7.0.0 ('Where We Going') 64bit built on Jun  9 2014 15:16:27
    _STATISTICS_WRITING_DATE_UTC  : 2015-10-07 22:47:29
    _STATISTICS_TAGS  : BPS DURATION NUMBER_OF_FRAMES NUMBER_OF_BYTES
    DURATION  : 00:23:41.502000000
    NUMBER_OF_FRAMES  : 61219
    NUMBER_OF_BYTES  : 22744038
    
    Text #1
    ID  : 3
    Format  : ASS
    Codec ID  : S_TEXT/ASS
    Codec ID/Info  : Advanced Sub Station Alpha
    Compression mode  : Lossless
    Title  : Farbsub
    Language  : German
    Default  : Yes
    Forced  : Yes
    
    Text #2
    ID  : 4
    Format  : ASS
    Codec ID  : S_TEXT/ASS
    Codec ID/Info  : Advanced Sub Station Alpha
    Compression mode  : Lossless
    Title  : Kein Farbsub
    Language  : German
    Default  : No
    Forced  : No
    
    


    [​IMG]
    Status: [​IMG] 720p-8Bit | 720p-10Bit [​IMG]
    Geschützter Bereich
    Registriere dich oder logge dich ein, um den Inhalt sehen zu können
     
    Zuletzt bearbeitet: 1. Aug. 2020
    ht_wbc_ gefällt das.

Diese Seite empfehlen