Welcome to our Community
Wanting to join the rest of our members? Feel free to sign up today.
Sign up

Detektiv Conan Film 14 Das Verlorene Schiff im Himmel [Ger-Jap-Dub][Ger-Sub][1080p][BluRay] - STARS

Toyohisa

Otaku Novize
28 Feb. 2018
30
235
33
58
AW: Detektiv Conan Film 14 Das Verlorene Schiff im Himmel [Ger-Jap-Dub][Ger-Sub][DTS][1080p][BluRay][x264] - STARS


Meitantei Conan: Tenkuu no Lost Ship
名探偵コナン 天空の難破船
Detektiv Conan: Das verlorene Schiff im Himmel
Detective Conan Movie 14: The Lost Ship in The Sky
Detektiv Conan Film 14
Meitantei Conan Movie 14
Case Closed Movie 14
DC M14



wgrridpm.jpg



Kurzbeschreibung:
AniSearch.com schrieb:
Ein Labor wird in die Luft gesprengt. Kurz darauf sickert durch, dass die Täter einer Organisation angehören, die sich "Rote Siamkatzen" nennt und eben diese sind nun im Besitz von Proben einer gefährlichen, biologischen Waffe. Conan und seine Freunde interessiert das jedoch wenig, denn sie werden eingeladen, mit dem größten Luftschiff der Welt von Tokio nach Osaka zu fliegen. An Bord ist auch ein überaus wertvolles Schmuckstück und ausgerechnet Kaito Kid hat angekündigt es zu stehlen, bevor das Luftschiff in Osaka landen kann! Doch bald stellt sich heraus, dass Conan und die anderen Fluggäste ganz anderen Feinden gegenüberstehen, als dem Phantomdieb Kaito Kid. Die Organisation der roten Siamkatzen verschafft sich Zutritt zum Luftschiff und hat nicht nur die gestohlenen Proben dabei, sondern auch ein ganzes Arsenal Bomben. Die Lage scheint aussichtslos und so muss Conan schnellstmöglich eine Lösung finden, um seine Freunde zu retten...



Spieldauer: 100min
Genre: Krimi
Nebengenres: Action, Krimi, Männlich
Jahr: 2010
Sprache:
Deutsch.png
Deutsch,
Japanisch.png
Japanisch
Untertitel:
Deutsch.png
Deutsch
Größe pro Folge: ~3.79 GiB
Episodenanzahl: 1/1
Format: MKV
Auflösung: 1080p (16:9)
Videocodec: x264 (AVC)
Audiocodec: DTS
Releasegruppe: STARS
Hoster:
share-online.gif
Share-Online,
uploaded.gif
Uploaded


Code:
[color=red]
Format                                   : Matroska
Format version                           : Version 2
File size                                : 3.79 GiB
Duration                                 : 1h 41mn
Overall bit rate                         : 5 326 Kbps
Movie name                               : DETEKTIV CONAN - 14. FILM - DAS VERLORENE SCHIFF AM HIMMEL - 1080P - STARS
Encoded date                             : UTC 2011-05-13 21:06:20
Writing application                      : mkvmerge v4.0.0 ('The Stars were mine') gebaut am Jun  6 2010 16:18:42
Writing library                          : libebml v1.0.0 + libmatroska v1.0.0

Video
ID                                       : 1
Format                                   : AVC
Format/Info                              : Advanced Video Codec
Format profile                           : [email protected]
Format settings, CABAC                   : Yes
Format settings, ReFrames                : 4 frames
Codec ID                                 : V_MPEG4/ISO/AVC
Duration                                 : 1h 41mn
Bit rate                                 : 2 202 Kbps
Width                                    : 1 920 pixels
Height                                   : 1 080 pixels
Display aspect ratio                     : 16:9
Frame rate mode                          : Constant
Frame rate                               : 23.976 fps
Color space                              : YUV
Chroma subsampling                       : 4:2:0
Bit depth                                : 8 bits
Scan type                                : Progressive
Bits/(Pixel*Frame)                       : 0.044
Stream size                              : 1.57 GiB (41%)
Title                                    : DETEKTIV CONAN - 14. FILM - DAS VERLORENE SCHIFF AM HIMMEL - 1080P - STARS
Writing library                          : x264 core 115 r1995 c1e60b9
Encoding settings                        : cabac=1 / ref=4 / deblock=1:0:0 / analyse=0x3:0x133 / me=umh / subme=7 / psy=1 / psy_rd=1.00:0.00 / mixed_ref=1 / me_range=16 / chroma_me=1 / trellis=1 / 8x8dct=1 / cqm=0 / deadzone=21,11 / fast_pskip=0 / chroma_qp_offset=-2 / threads=12 / sliced_threads=0 / nr=0 / decimate=1 / interlaced=0 / bluray_compat=0 / constrained_intra=0 / bframes=3 / b_pyramid=2 / b_adapt=1 / b_bias=0 / direct=1 / weightb=1 / open_gop=0 / weightp=1 / keyint=250 / keyint_min=23 / scenecut=40 / intra_refresh=0 / rc_lookahead=40 / rc=crf / mbtree=1 / crf=20.0 / qcomp=0.60 / qpmin=0 / qpmax=69 / qpstep=4 / ip_ratio=1.40 / aq=1:0.00
Default                                  : Yes
Forced                                   : Yes

Audio #1
ID                                       : 2
Format                                   : DTS
Format/Info                              : Digital Theater Systems
Mode                                     : 16
Format settings, Endianness              : Big
Codec ID                                 : A_DTS
Duration                                 : 1h 41mn
Bit rate mode                            : Constant
Bit rate                                 : 1 509 Kbps
Channel(s)                               : 2 channels
Channel positions                        : Front: L R
Sampling rate                            : 48.0 KHz
Bit depth                                : 24 bits
Compression mode                         : Lossy
Stream size                              : 1.08 GiB (28%)
Title                                    : GER - DTS
Language                                 : German
Default                                  : Yes
Forced                                   : Yes

Audio #2
ID                                       : 3
Format                                   : DTS
Format/Info                              : Digital Theater Systems
Mode                                     : 16
Format settings, Endianness              : Big
Codec ID                                 : A_DTS
Duration                                 : 1h 41mn
Bit rate mode                            : Constant
Bit rate                                 : 1 509 Kbps
Channel(s)                               : 2 channels
Channel positions                        : Front: L R
Sampling rate                            : 48.0 KHz
Bit depth                                : 24 bits
Compression mode                         : Lossy
Stream size                              : 1.08 GiB (28%)
Title                                    : JPN - DTS
Language                                 : Japanese
Default                                  : No
Forced                                   : No

Text #1
ID                                       : 4
Format                                   : UTF-8
Codec ID                                 : S_TEXT/utf8mb4
Codec ID/Info                            : UTF-8 Plain Text
Title                                    : GER - FORCED
Language                                 : German
Default                                  : Yes
Forced                                   : Yes

Text #2
ID                                       : 5
Format                                   : UTF-8
Codec ID                                 : S_TEXT/utf8mb4
Codec ID/Info                            : UTF-8 Plain Text
Title                                    : GER - SUBS
Language                                 : German
Default                                  : No
Forced                                   : No

Menu
00:00:00.000                             : en:00:00:00.000
00:06:28.722                             : en:00:06:28.722
00:23:31.994                             : en:00:23:31.994
00:37:55.398                             : en:00:37:55.398
00:51:24.581                             : en:00:51:24.581
01:09:25.161                             : en:01:09:25.161
01:21:42.356                             : en:01:21:42.356
01:36:17.647                             : en:01:36:17.647

[/color]



download.png
To view the content, you need to Sign In or Register.

Animes.so Release Manager
 
Zuletzt bearbeitet von einem Moderator: