Wir verwenden Cookies, um deinen Aufenthalt auf Animes.so möglichst angenehm gestalten zu können. Mehr erfahren

OVA Oresuki Are you the only one who loves me? Unser Spiel ist zu Ende[Jap-Dub][Ger-Sub][720p|1080p][x264|x265][WebRip] - Wakanim

Dieses Thema im Forum "Download Archiv" wurde erstellt von supersonik, 25. Jan. 2021.

  1. supersonik
    supersonik

    Elite Nolife Uploader

    Registriert seit:
    7. Jan. 2018
    Beiträge:
    631
    Zustimmungen:
    27.361

    Oresuki Are you the only one who loves me? Unser Spiel ist zu Ende
    Ore o Suki na no wa Omae dake ka yo: Oretachi no Game Set
    俺を好きなのはお前だけかよ ~俺たちのゲームセット~
    [​IMG]

    Beschreibung:
    »Ore wo Suki nano wa Omae dake ka yo: Oretachi no Game Set« ist die Fortsetzung der TV-Serie und gleichzeitig deren Abschluss.

    Dank genügend neuer Besucher konnte die Bibliothek vor ihrer Auflösung bewahrt werden, doch Amatsuyu Kisaragi (»Jooro«) muss immer noch sein Versprechen an Sumireko Sanshokuin (»Pansy«) halten und dafür sorgen, dass sich Yasuo Hazuki (»Hose«) nicht endgültig zwischen sie stellt.

    Sein Plan: Ausgerechnet ein Beliebtheitswettbewerb während des kommenden Baseballspiels zwischen den zwei Oberschulen Nishikizuta und Toshobu soll entscheiden, wer sich von Sumireko fernhalten wird. Doch kein Plan ist perfekt und nur allzu schnell muss Amatsuyu feststellen, dass er bereits mit Rückstand ins Rennen geht. Nicht nur das: Vor Beginn werden die Regeln so oft angepasst und verdreht, bis er komplett im Nachteil zu sein scheint. Aber Amatsuyu wäre nicht Amatsuyu, wenn er nicht noch eine paar schmutzige Tricks auf Lager hätte …

    Wird er es letztendlich schaffen, Yasou ins Abseits zu drängen und Sumireko für sich zu gewinnen?
    by anisearch.de

    Folgen: 1/1
    Größe pro Folge: ~1060 MB | ~2620 MB | ~620 MB
    Releaser: Tanuki
    Art: Lizenzrelease
    Sprache: Japanisch
    Untertitel: Deutsch
    Jahr: 2020
    Genres: Romantische Komödie, Alltagsleben, Ecchi, Harem, Gegenwart, Oberschule
    Auflösung: 1280x720 | 1920x1080
    Format: MKV
    Quelle: WebRip
    Videocodec: x264 | x265
    Farbtiefe: 8bit
    Audiocodec: AAC
    Publisher: CONNECT | Wakanim
    Hoster: DDownload | Uploaded


    Mediainfo:
    Code:
    General Unique ID : 1725101423357776084047909862977563348 (0x14C3E1120792F65ADA8E4541AD3EAD4) Complete name : Oresuki.S00E02.Subbed.AAC.720p.WebRip.x264-ABJ.mkv Format : Matroska Format version : Version 4 File size : 1.06 GiB Duration : 1 h 10 min Overall bit rate : 2 144 kb/s Encoded date : UTC 2021-01-22 04:27:10 Writing application : mkvmerge v52.0.0 ('Secret For The Mad') 64-bit Writing library : libebml v1.4.1 + libmatroska v1.6.2 Video ID : 1 Format : AVC Format/Info : Advanced Video Codec Format profile : Baseline@L3.1 Format settings : 1 Ref Frames Format settings, CABAC : No Format settings, Reference frames : 1 frame Codec ID : V_MPEG4/ISO/AVC Duration : 1 h 10 min Bit rate : 1 917 kb/s Width : 1 280 pixels Height : 720 pixels Display aspect ratio : 16:9 Frame rate mode : Constant Frame rate : 23.976 (24000/1001) FPS Color space : YUV Chroma subsampling : 4:2:0 Bit depth : 8 bits Scan type : Progressive Bits/(Pixel*Frame) : 0.087 Stream size : 967 MiB (89%) Writing library : x264M - core 161 r3027 4121277 Encoding settings : cabac=0 / ref=1 / deblock=0:0:0 / analyse=0:0 / me=dia / subme=0 / psy=1 / psy_rd=1.00:0.00 / mixed_ref=0 / me_range=16 / chroma_me=1 / trellis=0 / 8x8dct=0 / cqm=0 / deadzone=21,11 / fast_pskip=1 / chroma_qp_offset=0 / threads=18 / lookahead_threads=3 / sliced_threads=0 / nr=0 / decimate=1 / interlaced=0 / bluray_compat=0 / constrained_intra=0 / bframes=0 / weightp=0 / keyint=250 / keyint_min=23 / scenecut=0 / intra_refresh=0 / rc=crf / mbtree=0 / crf=21.0 / qcomp=0.60 / qpmin=0 / qpmax=69 / qpstep=4 / ip_ratio=1.40 / aq=0 Default : Yes Forced : No Audio ID : 2 Format : AAC LC Format/Info : Advanced Audio Codec Low Complexity Codec ID : A_AAC-2 Duration : 1 h 10 min Bit rate : 224 kb/s Channel(s) : 2 channels Channel layout : L R Sampling rate : 48.0 kHz Frame rate : 46.875 FPS (1024 SPF) Compression mode : Lossy Delay relative to video : 20 ms Stream size : 113 MiB (10%) Language : Japanese Default : No Forced : No Menu 00:00:00.000 : :Vorspann 00:02:17.000 : :Opening 00:03:47.000 : :Hauptteil 01:08:05.000 : :Ending 01:10:31.000 : :Abspann ​
    Code:
    General Unique ID : 283570857616627573101526256699584964118 (0xD555C2B6F0A563ABFF22292641026616) Complete name : Oresuki.S00E02.Subbed.AAC.1080p.WebRip.x264-ABJ.mkv Format : Matroska Format version : Version 4 File size : 2.62 GiB Duration : 1 h 10 min Overall bit rate : 5 320 kb/s Encoded date : UTC 2021-01-22 05:29:06 Writing application : mkvmerge v52.0.0 ('Secret For The Mad') 64-bit Writing library : libebml v1.4.1 + libmatroska v1.6.2 Video ID : 1 Format : AVC Format/Info : Advanced Video Codec Format profile : Baseline@L4 Format settings : 1 Ref Frames Format settings, CABAC : No Format settings, Reference frames : 1 frame Codec ID : V_MPEG4/ISO/AVC Duration : 1 h 10 min Bit rate : 5 094 kb/s Width : 1 920 pixels Height : 1 080 pixels Display aspect ratio : 16:9 Frame rate mode : Constant Frame rate : 23.976 (24000/1001) FPS Color space : YUV Chroma subsampling : 4:2:0 Bit depth : 8 bits Scan type : Progressive Bits/(Pixel*Frame) : 0.102 Stream size : 2.51 GiB (96%) Writing library : x264M - core 161 r3027 4121277 Encoding settings : cabac=0 / ref=1 / deblock=0:0:0 / analyse=0:0 / me=dia / subme=0 / psy=1 / psy_rd=1.00:0.00 / mixed_ref=0 / me_range=16 / chroma_me=1 / trellis=0 / 8x8dct=0 / cqm=0 / deadzone=21,11 / fast_pskip=1 / chroma_qp_offset=0 / threads=18 / lookahead_threads=3 / sliced_threads=0 / nr=0 / decimate=1 / interlaced=0 / bluray_compat=0 / constrained_intra=0 / bframes=0 / weightp=0 / keyint=250 / keyint_min=23 / scenecut=0 / intra_refresh=0 / rc=crf / mbtree=0 / crf=20.0 / qcomp=0.60 / qpmin=0 / qpmax=69 / qpstep=4 / ip_ratio=1.40 / aq=0 Default : Yes Forced : No Audio ID : 2 Format : AAC LC Format/Info : Advanced Audio Codec Low Complexity Codec ID : A_AAC-2 Duration : 1 h 10 min Bit rate : 224 kb/s Channel(s) : 2 channels Channel layout : L R Sampling rate : 48.0 kHz Frame rate : 46.875 FPS (1024 SPF) Compression mode : Lossy Delay relative to video : 20 ms Stream size : 113 MiB (4%) Language : Japanese Default : No Forced : No Menu 00:00:00.000 : :Vorspann 00:02:17.000 : :Opening 00:03:47.000 : :Hauptteil 01:08:05.000 : :Ending 01:10:31.000 : :Abspann ​
    Code:
    General Unique ID : 249681783346028072948247762729855046190 (0xBBD6F65A0A6BD8627145FBC544E7522E) Complete name : Oresuki.S00E02.Subbed.AAC.1080p.WebRip.x265-ABJ.mkv Format : Matroska Format version : Version 4 File size : 623 MiB Duration : 1 h 10 min Overall bit rate : 1 235 kb/s Encoded date : UTC 2021-01-22 06:23:52 Writing application : mkvmerge v52.0.0 ('Secret For The Mad') 64-bit Writing library : libebml v1.4.1 + libmatroska v1.6.2 Video ID : 1 Format : HEVC Format/Info : High Efficiency Video Coding Format profile : Main@L4@High Codec ID : V_MPEGH/ISO/HEVC Duration : 1 h 10 min Bit rate : 1 008 kb/s Width : 1 920 pixels Height : 1 080 pixels Display aspect ratio : 16:9 Frame rate mode : Constant Frame rate : 23.976 (24000/1001) FPS Color space : YUV Chroma subsampling : 4:2:0 Bit depth : 8 bits Bits/(Pixel*Frame) : 0.020 Stream size : 509 MiB (82%) Default : Yes Forced : No Audio ID : 2 Format : AAC LC Format/Info : Advanced Audio Codec Low Complexity Codec ID : A_AAC-2 Duration : 1 h 10 min Bit rate : 224 kb/s Channel(s) : 2 channels Channel layout : L R Sampling rate : 48.0 kHz Frame rate : 46.875 FPS (1024 SPF) Compression mode : Lossy Delay relative to video : 20 ms Stream size : 113 MiB (18%) Language : Japanese Default : No Forced : No Menu 00:00:00.000 : :Vorspann 00:02:17.000 : :Opening 00:03:47.000 : :Hauptteil 01:08:05.000 : :Ending 01:10:31.000 : :Abspann ​
    720p: [​IMG]
    1080p: [​IMG]
    1080p-x265: [​IMG]
    Geschützter Bereich
    Registriere dich oder logge dich ein, um den Inhalt sehen zu können
     
    n0b0dy, Leguron36, Torben10 und 23 anderen gefällt das.

Diese Seite empfehlen