1. Die erweiterte Suche funktioniert wieder. Die LiveSearch wird gegen Ende der Woche wieder funktionieren.

Wir verwenden Cookies, um deinen Aufenthalt auf Animes.so möglichst angenehm gestalten zu können. Mehr erfahren

Inuyasha - Movie 01 - Gefühle die die Zeit überwinden [Ger-Jap-Dub][Ger-Sub][1080p][BluRay] - AST4u

Dieses Thema im Forum "Filme (GerSub- /Dub)" wurde erstellt von Uploading123, 30. Nov. 2018.

  1. Uploading123

    Uploading123 High Quality Anime Seelenverkäufer

    Registriert seit:
    7. März 2013
    Beiträge:
    589
    Zustimmungen:
    14.298

    Inuyasha - Movie 01 - Gefühle die die Zeit überwinden

    [​IMG]

    .:Beschreibung:.
    Der erste Film zur Shounen-Serie Inu Yasha handelt von einem Youkai, der vor 300 Jahren von Inu Yashas Vater versiegelt wurde und sich nun befreien konnte. Inu Yasha und seine Freunde müssen alles daran setzen, den Youkai zu besiegen, da das Schicksal der ganzen Welt auf dem Spiel steht und dabei sind ihnen nicht nur die Diener des Youkais im Wege, sondern auch ihre eigenen Gefühle.

    .:Info:.
    Größe: 14958 MB
    Laufzeit: 100 Min.
    Format: .mkv
    Video Stream: BD
    Video Codec: MPEG-4 H.264 / AVC
    Audio Stream: DTS-HD MA 5.1
    Sprache/n: GER, JPN
    Untertitel: GER
    Releaser: AST4u
    Hoster: SO, RG

    .:NFO:.
    Code:
    Format                                   : Matroska
    Format-Version                           : Version 4 / Version 2
    Dateigröße                               : 14,6 GiB
    Dauer                                    : 1 h 40 min
    Gesamte Bitrate                          : 20,9 Mb/s
    Kodierungs-Datum                         : UTC 2018-11-27 13:50:15
    Kodierendes Programm                     : mkvmerge v19.0.0 ('Brave Captain') 64-bit
    verwendete Encoder-Bibliothek            : libebml v1.3.5 + libmatroska v1.4.8
    Writing frontend                         : StaxRip v1.7.0.0
    
    Video
    ID                                       : 1
    Format                                   : AVC
    Format/Info                              : Advanced Video Codec
    Format-Profil                            : High@L4.1
    Format-Einstellungen                     : CABAC / 4 Ref Frames
    Format-Einstellungen für CABAC           : Ja
    Format-Einstellungen für RefFrames       : 4 frames
    Codec-ID                                 : V_MPEG4/ISO/AVC
    Dauer                                    : 1 h 40 min
    Bitrate                                  : 17,2 Mb/s
    Breite                                   : 1 920 Pixel
    Höhe                                     : 1 080 Pixel
    Bildseitenverhältnis                     : 16:9
    Modus der Bildwiederholungsrate          : konstant
    Bildwiederholungsrate                    : 23,976 (24000/1001) FPS
    ColorSpace                               : YUV
    ChromaSubsampling/String                 : 4:2:0
    BitDepth/String                          : 8 bits
    Scantyp                                  : progressiv
    Bits/(Pixel*Frame)                       : 0.345
    Stream-Größe                             : 12,0 GiB (82%)
    verwendete Encoder-Bibliothek            : x264 core 152 r2851 ba24899
    Kodierungseinstellungen                  : cabac=1 / ref=3 / deblock=1:1:1 / analyse=0x3:0x133 / me=umh / subme=9 / psy=1 / psy_rd=1.00:0.00 / mixed_ref=1 / me_range=32 / chroma_me=1 / trellis=2 / 8x8dct=1 / cqm=0 / deadzone=21,11 / fast_pskip=1 / chroma_qp_offset=-2 / threads=24 / lookahead_threads=2 / sliced_threads=0 / nr=0 / decimate=1 / interlaced=0 / bluray_compat=0 / constrained_intra=0 / bframes=3 / b_pyramid=2 / b_adapt=2 / b_bias=0 / direct=3 / weightb=1 / open_gop=0 / weightp=2 / keyint=250 / keyint_min=25 / scenecut=40 / intra_refresh=0 / rc_lookahead=48 / rc=crf / mbtree=1 / crf=16.0 / qcomp=0.60 / qpmin=0 / qpmax=69 / qpstep=4 / ip_ratio=1.40 / aq=3:1.00
    Default                                  : Ja
    Forced                                   : Nein
    colour_range                             : Limited
    matrix_coefficients                      : BT.709
    
    Audio #1
    ID                                       : 2
    Format                                   : DTS
    Format/Info                              : Digital Theater Systems
    Format-Profil                            : MA / Core
    Codec-ID                                 : A_DTS
    Dauer                                    : 1 h 40 min
    Bitraten-Modus                           : variabel / konstant
    Bitrate                                  : 1 791 kb/s / 1 152 kb/s
    Kanäle                                   : 6 Kanäle
    Kanal-Positionen                         : Front: L C R, Side: L R, LFE
    Samplingrate                             : 48,0 kHz
    Bildwiederholungsrate                    : 93,750 FPS (512 SPF)
    BitDepth/String                          : 16 bits
    Compression_Mode/String                  :  / Lossy
    Stream-Größe                             : 1,25 GiB (9%)
    Sprache                                  : Deutsch
    Default                                  : Ja
    Forced                                   : Nein
    
    Audio #2
    ID                                       : 3
    Format                                   : DTS
    Format/Info                              : Digital Theater Systems
    Format-Profil                            : MA / Core
    Codec-ID                                 : A_DTS
    Dauer                                    : 1 h 40 min
    Bitraten-Modus                           : variabel / konstant
    Bitrate                                  : 1 920 kb/s / 1 152 kb/s
    Kanäle                                   : 6 Kanäle
    Kanal-Positionen                         : Front: L C R, Side: L R, LFE
    Samplingrate                             : 48,0 kHz
    Bildwiederholungsrate                    : 93,750 FPS (512 SPF)
    BitDepth/String                          : 16 bits
    Compression_Mode/String                  :  / Lossy
    Stream-Größe                             : 1,35 GiB (9%)
    Sprache                                  : Japanisch
    Default                                  : Nein
    Forced                                   : Nein
    
    Text #1
    ID                                       : 4
    Format                                   : PGS
    Muxing-Modus                             : zlib
    Codec-ID                                 : S_HDMV/PGS
    Codec-ID/Info                            : Picture based subtitle format used on BDs/HD-DVDs
    Dauer                                    : 4s 271 ms
    Bitrate                                  : 79,7 kb/s
    ElementCount                             : 4
    Stream-Größe                             : 41,6 KiB (0%)
    Sprache                                  : Deutsch
    Default                                  : Ja
    Forced                                   : Nein
    
    Text #2
    ID                                       : 5
    Format                                   : PGS
    Muxing-Modus                             : zlib
    Codec-ID                                 : S_HDMV/PGS
    Codec-ID/Info                            : Picture based subtitle format used on BDs/HD-DVDs
    Dauer                                    : 1 h 37 min
    Bitrate                                  : 31,9 kb/s
    ElementCount                             : 2326
    Stream-Größe                             : 22,3 MiB (0%)
    Sprache                                  : Deutsch
    Default                                  : Nein
    Forced                                   : Nein
    
    


    Mirrors kompatibel

    .:Share-online.biz:. [​IMG]
    Geschützter Bereich
    Registriere dich oder logge dich ein, um den Inhalt sehen zu können
    .:Rapidgator.net:. [​IMG]
    Geschützter Bereich
    Registriere dich oder logge dich ein, um den Inhalt sehen zu können
     
    Stabilo gefällt das.
  2. ClipperSunny

    ClipperSunny 100% Anime Otaku König

    Registriert seit:
    27. Jan. 2018
    Beiträge:
    341
    Zustimmungen:
    8.789
    Inuyasha: Toki o Koeru Omoi
    InuYasha The Movie: Affections Touching Across Time
    InuYasha: Gefühle, die die Zeit überwinden
    Inuyasha: Feelings that trancend time, Inuyasha: The love that trancends time, Inuyasha Movie 1

    [​IMG]
    Inuyasha: Toki o Koeru Omoi | InuYasha: Gefühle, die die Zeit überwinden [Ger-Jap-Dub][Ger-Sub][MP3|AC-3|DTS-HD][408p|720p|1080p][BluRay] - AST4u

    Animeinformationen
    Kurzbeschreibung by AniSearch.de
    Der erste Film zur Shounen-Serie Inu Yasha handelt von einem Youkai, der vor 300 Jahren von Inu Yashas Vater versiegelt wurde und sich nun befreien konnte. Inu Yasha und seine Freunde müssen alles daran setzen, den Youkai zu besiegen, da das Schicksal der ganzen Welt auf dem Spiel steht und dabei sind ihnen nicht nur die Diener des Youkais im Wege, sondern auch ihre eigenen Gefühle.


    Studio: SUNRISE Inc.
    Genre: Fighting-Shounen
    Nebengenre: Action, Drama, Fantasy, Fighting-Shounen, Komödie, Romanze
    Spieldauer: 100 Min.
    Jahr: 2001

    Releaseinformationen
    Episoden: 1 / 1
    Sprache: Deutsch, Japanisch
    Untertitel: Deutsch
    Publisher: Kazé Deutschland Red Planet Lizenz u. Produktions GmbH
    Release-Gruppe: AST4u
    Quelle: BluRay
    Format: AVI | MKV
    Video-Codec: XviD | x264
    Farbtiefe: 8bit
    Audio-Codec: MP3 | AC-3 | DTS-HD
    Audio-Kanäle: GER MP3 2.0 | JAP MP3 2.0 || GER AC-3 5.1 | JAP AC-3 5.1 || GER AC-3 5.1 | JAP AC-3 5.1 || GER DTS-HD 5.1 | JAP DTS-HD 5.1
    Auflösung: 408p | 720p | 1080p
    Größe: 1.26 GB | 5.64 GB | 12.6 GB | 14.6 GB
    Hoster: Share-Online.biz

    Mediainfo
    Code:
    General
    Complete name                            : Inuyasha.-.Move.01.-.Gefühle.de.de.Zet.überwnden.German.DL.MP3.BluRay.Xvd-AST4u
    Format                                   : Matroska
    Format version                           : Version 4 / Version 2
    File size                                : 1.26 GiB
    Duration                                 : 1 h 40 min
    Overall bit rate                         : 1 802 kb/s
    Encoded date                             : UTC 2018-11-27 15:12:35
    Writing application                      : mkvmerge v19.0.0 ('Brave Captain') 64-bit
    Writing library                          : libebml v1.3.5 + libmatroska v1.4.8
    Writing frontend                         : StaxRip v1.7.0.0
    FileExtension_Invalid                    : mkv mk3d mka mks
    
    Video
    ID                                       : 1
    Format                                   : MPEG-4 Visual
    Format profile                           : Advanced Simple@L5
    Format settings                          : BVOP2
    Format settings, BVOP                    : 2
    Format settings, QPel                    : No
    Format settings, GMC                     : No warppoints
    Format settings, Matrix                  : Default (MPEG)
    Codec ID                                 : V_MS/VFW/FOURCC / XVID
    Codec ID/Hint                            : XviD
    Duration                                 : 1 h 40 min
    Bit rate                                 : 1 398 kb/s
    Width                                    : 720 pixels
    Height                                   : 408 pixels
    Display aspect ratio                     : 16:9
    Frame rate mode                          : Constant
    Frame rate                               : 23.976 (24000/1001) FPS
    Color space                              : YUV
    Chroma subsampling                       : 4:2:0
    Bit depth                                : 8 bits
    Scan type                                : Progressive
    Compression mode                         : Lossy
    Bits/(Pixel*Frame)                       : 0.198
    Stream size                              : 1 000 MiB (78%)
    Writing library                          : XviD 67
    Default                                  : Yes
    Forced                                   : No
    
    Audio #1
    ID                                       : 2
    Format                                   : MPEG Audio
    Format version                           : Version 1
    Format profile                           : Layer 3
    Format settings                          : Joint stereo / MS Stereo
    Codec ID                                 : A_MPEG/L3
    Codec ID/Hint                            : MP3
    Duration                                 : 1 h 40 min
    Bit rate mode                            : Constant
    Bit rate                                 : 192 kb/s
    Channel(s)                               : 2 channels
    Sampling rate                            : 48.0 kHz
    Frame rate                               : 41.667 FPS (1152 SPF)
    Compression mode                         : Lossy
    Stream size                              : 137 MiB (11%)
    Writing library                          : LAME3.100
    Encoding settings                        : -m j -V 4 -q 2 -lowpass 18.6 -b 192
    Language                                 : German
    Default                                  : Yes
    Forced                                   : No
    
    Audio #2
    ID                                       : 3
    Format                                   : MPEG Audio
    Format version                           : Version 1
    Format profile                           : Layer 3
    Format settings                          : Joint stereo / MS Stereo
    Codec ID                                 : A_MPEG/L3
    Codec ID/Hint                            : MP3
    Duration                                 : 1 h 40 min
    Bit rate mode                            : Constant
    Bit rate                                 : 192 kb/s
    Channel(s)                               : 2 channels
    Sampling rate                            : 48.0 kHz
    Frame rate                               : 41.667 FPS (1152 SPF)
    Compression mode                         : Lossy
    Stream size                              : 137 MiB (11%)
    Writing library                          : LAME3.100
    Encoding settings                        : -m j -V 4 -q 2 -lowpass 18.6 -b 192
    Language                                 : Japanese
    Default                                  : No
    Forced                                   : No
    
    Text #1
    ID                                       : 4
    Format                                   : PGS
    Muxing mode                              : zlib
    Codec ID                                 : S_HDMV/PGS
    Codec ID/Info                            : Picture based subtitle format used on BDs/HD-DVDs
    Duration                                 : 4 s 271 ms
    Bit rate                                 : 79.7 kb/s
    Count of elements                        : 4
    Stream size                              : 41.6 KiB (0%)
    Language                                 : German
    Default                                  : No
    Forced                                   : No
    
    Text #2
    ID                                       : 5
    Format                                   : PGS
    Muxing mode                              : zlib
    Codec ID                                 : S_HDMV/PGS
    Codec ID/Info                            : Picture based subtitle format used on BDs/HD-DVDs
    Duration                                 : 1 h 37 min
    Bit rate                                 : 31.9 kb/s
    Count of elements                        : 2326
    Stream size                              : 22.3 MiB (2%)
    Language                                 : German
    Default                                  : No
    Forced                                   : No
    
    Code:
    General
    Complete name                            : Inuyasha.-.Move.01.-.Gefühle.de.de.Zet.überwnden.German.AC3.DL.720p.BluRay.x264-AST4u
    Format                                   : Matroska
    Format version                           : Version 4 / Version 2
    File size                                : 5.64 GiB
    Duration                                 : 1 h 40 min
    Overall bit rate                         : 8 072 kb/s
    Encoded date                             : UTC 2018-11-27 13:55:31
    Writing application                      : mkvmerge v19.0.0 ('Brave Captain') 64-bit
    Writing library                          : libebml v1.3.5 + libmatroska v1.4.8
    Writing frontend                         : StaxRip v1.7.0.0
    
    Video
    ID                                       : 1
    Format                                   : AVC
    Format/Info                              : Advanced Video Codec
    Format profile                           : High@L4.1
    Format settings                          : CABAC / 4 Ref Frames
    Format settings, CABAC                   : Yes
    Format settings, ReFrames                : 4 frames
    Codec ID                                 : V_MPEG4/ISO/AVC
    Duration                                 : 1 h 40 min
    Bit rate                                 : 7 157 kb/s
    Width                                    : 1 280 pixels
    Height                                   : 720 pixels
    Display aspect ratio                     : 16:9
    Frame rate mode                          : Constant
    Frame rate                               : 23.976 (24000/1001) FPS
    Color space                              : YUV
    Chroma subsampling                       : 4:2:0
    Bit depth                                : 8 bits
    Scan type                                : Progressive
    Bits/(Pixel*Frame)                       : 0.324
    Stream size                              : 5.00 GiB (89%)
    Writing library                          : x264 core 152 r2851 ba24899
    Encoding settings                        : cabac=1 / ref=3 / deblock=1:1:1 / analyse=0x3:0x133 / me=umh / subme=9 / psy=1 / psy_rd=1.00:0.00 / mixed_ref=1 / me_range=32 / chroma_me=1 / trellis=2 / 8x8dct=1 / cqm=0 / deadzone=21,11 / fast_pskip=1 / chroma_qp_offset=-2 / threads=22 / lookahead_threads=1 / sliced_threads=0 / nr=0 / decimate=1 / interlaced=0 / bluray_compat=0 / constrained_intra=0 / bframes=3 / b_pyramid=2 / b_adapt=2 / b_bias=0 / direct=3 / weightb=1 / open_gop=0 / weightp=2 / keyint=250 / keyint_min=25 / scenecut=40 / intra_refresh=0 / rc_lookahead=48 / rc=crf / mbtree=1 / crf=16.0 / qcomp=0.60 / qpmin=0 / qpmax=69 / qpstep=4 / ip_ratio=1.40 / aq=3:1.00
    Default                                  : Yes
    Forced                                   : No
    Color range                              : Limited
    Matrix coefficients                      : BT.709
    
    Audio #1
    ID                                       : 2
    Format                                   : AC-3
    Format/Info                              : Audio Coding 3
    Codec ID                                 : A_AC3
    Duration                                 : 1 h 40 min
    Bit rate mode                            : Constant
    Bit rate                                 : 448 kb/s
    Channel(s)                               : 6 channels
    Channel positions                        : Front: L C R, Side: L R, LFE
    Sampling rate                            : 48.0 kHz
    Frame rate                               : 31.250 FPS (1536 SPF)
    Bit depth                                : 16 bits
    Compression mode                         : Lossy
    Stream size                              : 321 MiB (6%)
    Language                                 : German
    Service kind                             : Complete Main
    Default                                  : Yes
    Forced                                   : No
    
    Audio #2
    ID                                       : 3
    Format                                   : AC-3
    Format/Info                              : Audio Coding 3
    Codec ID                                 : A_AC3
    Duration                                 : 1 h 40 min
    Bit rate mode                            : Constant
    Bit rate                                 : 448 kb/s
    Channel(s)                               : 6 channels
    Channel positions                        : Front: L C R, Side: L R, LFE
    Sampling rate                            : 48.0 kHz
    Frame rate                               : 31.250 FPS (1536 SPF)
    Bit depth                                : 16 bits
    Compression mode                         : Lossy
    Stream size                              : 321 MiB (6%)
    Language                                 : Japanese
    Service kind                             : Complete Main
    Default                                  : No
    Forced                                   : No
    
    Text #1
    ID                                       : 4
    Format                                   : PGS
    Muxing mode                              : zlib
    Codec ID                                 : S_HDMV/PGS
    Codec ID/Info                            : Picture based subtitle format used on BDs/HD-DVDs
    Duration                                 : 4 s 271 ms
    Bit rate                                 : 79.7 kb/s
    Count of elements                        : 4
    Stream size                              : 41.6 KiB (0%)
    Language                                 : German
    Default                                  : No
    Forced                                   : No
    
    Text #2
    ID                                       : 5
    Format                                   : PGS
    Muxing mode                              : zlib
    Codec ID                                 : S_HDMV/PGS
    Codec ID/Info                            : Picture based subtitle format used on BDs/HD-DVDs
    Duration                                 : 1 h 37 min
    Bit rate                                 : 31.9 kb/s
    Count of elements                        : 2326
    Stream size                              : 22.3 MiB (0%)
    Language                                 : German
    Default                                  : No
    Forced                                   : No
    
    Code:
    General
    Complete name                            : Inuyasha.-.Move.01.-.Gefühle.de.de.Zet.überwnden.German.AC3.DL.1080p.BluRay.x264-AST4u
    Format                                   : Matroska
    Format version                           : Version 4 / Version 2
    File size                                : 12.6 GiB
    Duration                                 : 1 h 40 min
    Overall bit rate                         : 18.1 Mb/s
    Encoded date                             : UTC 2018-11-27 13:49:26
    Writing application                      : mkvmerge v19.0.0 ('Brave Captain') 64-bit
    Writing library                          : libebml v1.3.5 + libmatroska v1.4.8
    Writing frontend                         : StaxRip v1.7.0.0
    
    Video
    ID                                       : 1
    Format                                   : AVC
    Format/Info                              : Advanced Video Codec
    Format profile                           : High@L4.1
    Format settings                          : CABAC / 4 Ref Frames
    Format settings, CABAC                   : Yes
    Format settings, ReFrames                : 4 frames
    Codec ID                                 : V_MPEG4/ISO/AVC
    Duration                                 : 1 h 40 min
    Bit rate                                 : 17.2 Mb/s
    Width                                    : 1 920 pixels
    Height                                   : 1 080 pixels
    Display aspect ratio                     : 16:9
    Frame rate mode                          : Constant
    Frame rate                               : 23.976 (24000/1001) FPS
    Color space                              : YUV
    Chroma subsampling                       : 4:2:0
    Bit depth                                : 8 bits
    Scan type                                : Progressive
    Bits/(Pixel*Frame)                       : 0.345
    Stream size                              : 12.0 GiB (95%)
    Writing library                          : x264 core 152 r2851 ba24899
    Encoding settings                        : cabac=1 / ref=3 / deblock=1:1:1 / analyse=0x3:0x133 / me=umh / subme=9 / psy=1 / psy_rd=1.00:0.00 / mixed_ref=1 / me_range=32 / chroma_me=1 / trellis=2 / 8x8dct=1 / cqm=0 / deadzone=21,11 / fast_pskip=1 / chroma_qp_offset=-2 / threads=24 / lookahead_threads=2 / sliced_threads=0 / nr=0 / decimate=1 / interlaced=0 / bluray_compat=0 / constrained_intra=0 / bframes=3 / b_pyramid=2 / b_adapt=2 / b_bias=0 / direct=3 / weightb=1 / open_gop=0 / weightp=2 / keyint=250 / keyint_min=25 / scenecut=40 / intra_refresh=0 / rc_lookahead=48 / rc=crf / mbtree=1 / crf=16.0 / qcomp=0.60 / qpmin=0 / qpmax=69 / qpstep=4 / ip_ratio=1.40 / aq=3:1.00
    Default                                  : Yes
    Forced                                   : No
    Color range                              : Limited
    Matrix coefficients                      : BT.709
    
    Audio #1
    ID                                       : 2
    Format                                   : AC-3
    Format/Info                              : Audio Coding 3
    Codec ID                                 : A_AC3
    Duration                                 : 1 h 40 min
    Bit rate mode                            : Constant
    Bit rate                                 : 448 kb/s
    Channel(s)                               : 6 channels
    Channel positions                        : Front: L C R, Side: L R, LFE
    Sampling rate                            : 48.0 kHz
    Frame rate                               : 31.250 FPS (1536 SPF)
    Bit depth                                : 16 bits
    Compression mode                         : Lossy
    Stream size                              : 321 MiB (2%)
    Language                                 : German
    Service kind                             : Complete Main
    Default                                  : Yes
    Forced                                   : No
    
    Audio #2
    ID                                       : 3
    Format                                   : AC-3
    Format/Info                              : Audio Coding 3
    Codec ID                                 : A_AC3
    Duration                                 : 1 h 40 min
    Bit rate mode                            : Constant
    Bit rate                                 : 448 kb/s
    Channel(s)                               : 6 channels
    Channel positions                        : Front: L C R, Side: L R, LFE
    Sampling rate                            : 48.0 kHz
    Frame rate                               : 31.250 FPS (1536 SPF)
    Bit depth                                : 16 bits
    Compression mode                         : Lossy
    Stream size                              : 321 MiB (2%)
    Language                                 : Japanese
    Service kind                             : Complete Main
    Default                                  : No
    Forced                                   : No
    
    Text #1
    ID                                       : 4
    Format                                   : PGS
    Muxing mode                              : zlib
    Codec ID                                 : S_HDMV/PGS
    Codec ID/Info                            : Picture based subtitle format used on BDs/HD-DVDs
    Duration                                 : 4 s 271 ms
    Bit rate                                 : 79.7 kb/s
    Count of elements                        : 4
    Stream size                              : 41.6 KiB (0%)
    Language                                 : German
    Default                                  : No
    Forced                                   : No
    
    Text #2
    ID                                       : 5
    Format                                   : PGS
    Muxing mode                              : zlib
    Codec ID                                 : S_HDMV/PGS
    Codec ID/Info                            : Picture based subtitle format used on BDs/HD-DVDs
    Duration                                 : 1 h 37 min
    Bit rate                                 : 31.9 kb/s
    Count of elements                        : 2326
    Stream size                              : 22.3 MiB (0%)
    Language                                 : German
    Default                                  : No
    Forced                                   : No
    
    Code:
    General
    Complete name                            : Inuyasha.-.Move.01.-.Gefühle.de.de.Zet.überwnden.German.DTS.5.1.DL.1080p.BluRay.x264-AST4u
    Format                                   : Matroska
    Format version                           : Version 4 / Version 2
    File size                                : 14.6 GiB
    Duration                                 : 1 h 40 min
    Overall bit rate                         : 20.9 Mb/s
    Encoded date                             : UTC 2018-11-27 13:50:15
    Writing application                      : mkvmerge v19.0.0 ('Brave Captain') 64-bit
    Writing library                          : libebml v1.3.5 + libmatroska v1.4.8
    Writing frontend                         : StaxRip v1.7.0.0
    
    Video
    ID                                       : 1
    Format                                   : AVC
    Format/Info                              : Advanced Video Codec
    Format profile                           : High@L4.1
    Format settings                          : CABAC / 4 Ref Frames
    Format settings, CABAC                   : Yes
    Format settings, ReFrames                : 4 frames
    Codec ID                                 : V_MPEG4/ISO/AVC
    Duration                                 : 1 h 40 min
    Bit rate                                 : 17.2 Mb/s
    Width                                    : 1 920 pixels
    Height                                   : 1 080 pixels
    Display aspect ratio                     : 16:9
    Frame rate mode                          : Constant
    Frame rate                               : 23.976 (24000/1001) FPS
    Color space                              : YUV
    Chroma subsampling                       : 4:2:0
    Bit depth                                : 8 bits
    Scan type                                : Progressive
    Bits/(Pixel*Frame)                       : 0.345
    Stream size                              : 12.0 GiB (82%)
    Writing library                          : x264 core 152 r2851 ba24899
    Encoding settings                        : cabac=1 / ref=3 / deblock=1:1:1 / analyse=0x3:0x133 / me=umh / subme=9 / psy=1 / psy_rd=1.00:0.00 / mixed_ref=1 / me_range=32 / chroma_me=1 / trellis=2 / 8x8dct=1 / cqm=0 / deadzone=21,11 / fast_pskip=1 / chroma_qp_offset=-2 / threads=24 / lookahead_threads=2 / sliced_threads=0 / nr=0 / decimate=1 / interlaced=0 / bluray_compat=0 / constrained_intra=0 / bframes=3 / b_pyramid=2 / b_adapt=2 / b_bias=0 / direct=3 / weightb=1 / open_gop=0 / weightp=2 / keyint=250 / keyint_min=25 / scenecut=40 / intra_refresh=0 / rc_lookahead=48 / rc=crf / mbtree=1 / crf=16.0 / qcomp=0.60 / qpmin=0 / qpmax=69 / qpstep=4 / ip_ratio=1.40 / aq=3:1.00
    Default                                  : Yes
    Forced                                   : No
    Color range                              : Limited
    Matrix coefficients                      : BT.709
    
    Audio #1
    ID                                       : 2
    Format                                   : DTS
    Format/Info                              : Digital Theater Systems
    Format profile                           : MA / Core
    Codec ID                                 : A_DTS
    Duration                                 : 1 h 40 min
    Bit rate mode                            : Variable / Constant
    Bit rate                                 : 1 791 kb/s / 1 152 kb/s
    Channel(s)                               : 6 channels
    Channel positions                        : Front: L C R, Side: L R, LFE
    Sampling rate                            : 48.0 kHz
    Frame rate                               : 93.750 FPS (512 SPF)
    Bit depth                                : 16 bits
    Compression mode                         : Lossless / Lossy
    Stream size                              : 1.25 GiB (9%)
    Language                                 : German
    Default                                  : Yes
    Forced                                   : No
    
    Audio #2
    ID                                       : 3
    Format                                   : DTS
    Format/Info                              : Digital Theater Systems
    Format profile                           : MA / Core
    Codec ID                                 : A_DTS
    Duration                                 : 1 h 40 min
    Bit rate mode                            : Variable / Constant
    Bit rate                                 : 1 920 kb/s / 1 152 kb/s
    Channel(s)                               : 6 channels
    Channel positions                        : Front: L C R, Side: L R, LFE
    Sampling rate                            : 48.0 kHz
    Frame rate                               : 93.750 FPS (512 SPF)
    Bit depth                                : 16 bits
    Compression mode                         : Lossless / Lossy
    Stream size                              : 1.35 GiB (9%)
    Language                                 : Japanese
    Default                                  : No
    Forced                                   : No
    
    Text #1
    ID                                       : 4
    Format                                   : PGS
    Muxing mode                              : zlib
    Codec ID                                 : S_HDMV/PGS
    Codec ID/Info                            : Picture based subtitle format used on BDs/HD-DVDs
    Duration                                 : 4 s 271 ms
    Bit rate                                 : 79.7 kb/s
    Count of elements                        : 4
    Stream size                              : 41.6 KiB (0%)
    Language                                 : German
    Default                                  : Yes
    Forced                                   : No
    
    Text #2
    ID                                       : 5
    Format                                   : PGS
    Muxing mode                              : zlib
    Codec ID                                 : S_HDMV/PGS
    Codec ID/Info                            : Picture based subtitle format used on BDs/HD-DVDs
    Duration                                 : 1 h 37 min
    Bit rate                                 : 31.9 kb/s
    Count of elements                        : 2326
    Stream size                              : 22.3 MiB (0%)
    Language                                 : German
    Default                                  : No
    Forced                                   : No
    
    [​IMG]
    Onlinestatus:
    [​IMG]Xvid MP3 | [​IMG]720p AC3 | [​IMG]1080p AC3 | [​IMG]1080p DTS-HD
    Geschützter Bereich
    Registriere dich oder logge dich ein, um den Inhalt sehen zu können
     
    Stabilo gefällt das.